<?xml version="1.0" standalone="no"?>
<!DOCTYPE svg PUBLIC "-//W3C//DTD SVG 1.1//EN" "http://www.w3.org/Graphics/SVG/1.1/DTD/svg11.dtd" >
<svg xmlns="http://www.w3.org/2000/svg" xmlns:xlink="http://www.w3.org/1999/xlink" version="1.1">
<metadata>
Created by FontForge 20170731 at Fri Dec 22 04:45:43 2017
 By Aleksey,,,
Copyright 2014-2017 Indian Type Foundry (info@indiantypefoundry.com)
</metadata>
<defs>
<font id="Poppins-Medium" horiz-adv-x="301" >
  <font-face 
    font-family="Poppins Medium"
    font-weight="500"
    font-stretch="normal"
    units-per-em="1000"
    panose-1="0 0 6 0 0 0 0 0 0 0"
    ascent="800"
    descent="-200"
    x-height="551"
    cap-height="695"
    bbox="-537 -582 2540 1077"
    underline-thickness="50"
    underline-position="-200"
    unicode-range="U+000D-FB02"
  />
<missing-glyph horiz-adv-x="500" 
d="M0 0v700h500v-700h-500zM250 395l170 255h-340zM280 350l170 -255v510zM80 50h340l-170 255zM50 605v-510l170 255z" />
    <glyph glyph-name=".notdef" horiz-adv-x="500" 
d="M0 0v700h500v-700h-500zM250 395l170 255h-340zM280 350l170 -255v510zM80 50h340l-170 255zM50 605v-510l170 255z" />
    <glyph glyph-name=".null" horiz-adv-x="0" 
 />
    <glyph glyph-name="nonmarkingreturn" horiz-adv-x="333" 
 />
    <glyph glyph-name="NULL" horiz-adv-x="0" 
 />
    <glyph glyph-name="NULL" horiz-adv-x="0" 
 />
    <glyph glyph-name="CR" unicode="&#xd;" horiz-adv-x="260" 
 />
    <glyph glyph-name="space" unicode=" " horiz-adv-x="260" 
 />
    <glyph glyph-name="exclam" unicode="!" horiz-adv-x="321" 
d="M110 210l-13 485h121l-13 -485h-95zM233 66q0 -31 -21 -52t-51 -21q-31 0 -52 21t-21 52t21 52t52 21q30 0 51 -21t21 -52z" />
    <glyph glyph-name="quotedbl" unicode="&#x22;" horiz-adv-x="323" 
d="M47 592l-13 205h103l-12 -205h-78zM198 592l-13 205h103l-12 -205h-78z" />
    <glyph glyph-name="numbersign" unicode="#" horiz-adv-x="872" 
d="M512 285l37 173h-196l-37 -173h196zM451 0l40 185h-196l-40 -185h-109l40 185h-155v100h176l37 173h-154v100h175l39 182h109l-39 -182h196l39 182h109l-39 -182h133v-100h-154l-37 -173h132v-100h-153l-40 -185h-109z" />
    <glyph glyph-name="dollar" unicode="$" horiz-adv-x="650" 
d="M270 -87v81q-94 9 -152 59t-58 132h122q7 -82 88 -97v220q-40 10 -61.5 16.5t-54.5 22t-50 33.5t-30.5 49.5t-13.5 72.5q0 83 58 137.5t152 62.5v82h65v-81q88 -8 141.5 -55.5t60.5 -130.5h-122q-3 31 -24 55.5t-56 33.5v-216q33 -8 51 -13t47 -15.5t45 -23.5t33.5 -32.5
t25 -46.5t7.5 -61q0 -77 -56 -135.5t-153 -67.5v-82h-65zM429 192q0 40 -24.5 62.5t-69.5 36.5v-203q44 7 69 35.5t25 68.5zM176 508q0 -41 24.5 -64t69.5 -37v202q-43 -5 -68.5 -31t-25.5 -70z" />
    <glyph glyph-name="percent" unicode="%" horiz-adv-x="794" 
d="M42 553q0 73 42.5 114.5t109.5 41.5t109.5 -41.5t42.5 -114.5t-42.5 -115t-109.5 -42t-109.5 42t-42.5 115zM194 640q-63 0 -63 -87q0 -88 63 -88t63 88q0 87 -63 87zM141 0l399 696h112l-399 -696h-112zM449 144q0 73 42.5 114.5t109.5 41.5q66 0 108.5 -41.5
t42.5 -114.5t-42.5 -115t-108.5 -42q-67 0 -109.5 42t-42.5 115zM600 231q-63 0 -63 -87t63 -87t63 87t-63 87z" />
    <glyph glyph-name="ampersand" unicode="&#x26;" horiz-adv-x="761" 
d="M517 540h-114q1 37 -18 57.5t-52 20.5t-53.5 -19.5t-20.5 -47.5q0 -27 15.5 -53.5t54.5 -68.5l184 -183l71 117h123l-90 -154q-3 -5 -25 -41l169 -168h-149l-86 86q-99 -99 -241 -99q-113 0 -181.5 58t-68.5 155q0 151 163 218q-53 64 -53 133q0 70 52.5 115t140.5 45
t136 -48.5t43 -122.5zM285 84q94 0 166 77l-184 185q-118 -47 -118 -142q0 -51 38 -85.5t98 -34.5z" />
    <glyph glyph-name="quotesingle" unicode="'" horiz-adv-x="172" 
d="M47 592l-13 205h103l-12 -205h-78z" />
    <glyph glyph-name="parenleft" unicode="(" horiz-adv-x="492" 
d="M445 -186h-118q-98 94 -150.5 239t-52.5 311q0 170 56.5 321t166.5 249h118v-11q-115 -106 -173 -254t-58 -305q0 -151 54 -292t157 -247v-11z" />
    <glyph glyph-name="parenright" unicode=")" horiz-adv-x="492" 
d="M47 -186h118q98 94 150.5 239t52.5 311q0 170 -56.5 321t-166.5 249h-118v-11q115 -106 173 -254t58 -305q0 -151 -54 -292t-157 -247v-11z" />
    <glyph glyph-name="asterisk" unicode="*" horiz-adv-x="504" 
d="M299 736l-22 -146l115 89l45 -80l-137 -51l137 -51l-46 -82l-114 90l21 -145h-92l19 145l-114 -92l-48 85l136 51l-136 49l46 82l117 -90l-20 146h93z" />
    <glyph glyph-name="plus" unicode="+" horiz-adv-x="714" 
d="M304 616h106v-207h202v-96h-202v-207h-106v207h-202v96h202v207z" />
    <glyph glyph-name="comma" unicode="," horiz-adv-x="225" 
d="M5 -139l71 276h124l-121 -276h-74z" />
    <glyph glyph-name="hyphen" unicode="-" horiz-adv-x="585" 
d="M87 314v96h411v-96h-411z" />
    <glyph glyph-name="period" unicode="." horiz-adv-x="241" 
d="M193 66q0 -31 -21 -52t-51 -21q-31 0 -52 21t-21 52t21 52t52 21q30 0 51 -21t21 -52z" />
    <glyph glyph-name="slash" unicode="/" horiz-adv-x="514" 
d="M61 -175l271 1119h113l-272 -1119h-112z" />
    <glyph glyph-name="zero" unicode="0" horiz-adv-x="641" 
d="M60 374q0 83 12.5 146t41 115t80.5 79.5t126 27.5t126 -27.5t80.5 -79.5t41 -115t12.5 -146q0 -84 -12.5 -148.5t-41 -116.5t-80.5 -79.5t-126 -27.5t-126 27.5t-80.5 79.5t-41 116.5t-12.5 148.5zM468 374q0 59 -5 100t-19 81.5t-45 61.5t-79 21t-79 -21t-45 -61.5
t-19 -81.5t-5 -100q0 -49 2.5 -83.5t11.5 -72t24.5 -60t43 -37.5t66.5 -15t66.5 15t43 37.5t24.5 60t11.5 72t2.5 83.5z" />
    <glyph glyph-name="one" unicode="1" horiz-adv-x="350" 
d="M138 0v625h-93v104h208v-729h-115z" />
    <glyph glyph-name="two" unicode="2" horiz-adv-x="577" 
d="M51 10v83q24 21 72.5 62.5t73.5 64t64 58.5t59.5 61.5t42.5 57.5t31.5 62t9.5 60q0 128 -118 128q-59 0 -91.5 -37.5t-34.5 -100.5h-110q3 114 68.5 174.5t166.5 60.5q109 0 170.5 -60t61.5 -160q0 -37 -9.5 -72.5t-30 -70.5t-39.5 -61.5t-53 -61t-54 -53.5t-59 -53.5
t-52 -46.5h317v-95h-486z" />
    <glyph glyph-name="three" unicode="3" horiz-adv-x="594" 
d="M58 549q6 93 71.5 145t167.5 52q105 0 164.5 -53.5t59.5 -136.5q0 -62 -33 -106t-79 -59v-4q59 -18 92 -65.5t33 -121.5q0 -90 -61.5 -147t-172.5 -57q-108 0 -177.5 55.5t-74.5 159.5h110q4 -53 41 -86.5t100 -33.5q61 0 94 33.5t33 86.5q0 70 -44.5 99.5t-136.5 29.5
h-26v94h27q166 2 166 109q0 48 -31 76.5t-88 28.5q-56 0 -87 -28.5t-37 -70.5h-111z" />
    <glyph glyph-name="four" unicode="4" horiz-adv-x="647" 
d="M408 0v152h-362v86l336 482h138v-469h93v-99h-93v-152h-112zM177 251h236v353z" />
    <glyph glyph-name="five" unicode="5" horiz-adv-x="639" 
d="M90 731h440v-100h-335v-199q21 28 62.5 47t88.5 19q64 0 111.5 -22t73 -59t37.5 -77.5t12 -84.5q0 -114 -65 -184.5t-187 -70.5q-109 0 -175 54t-79 143h111q11 -47 49 -74.5t95 -27.5q71 0 106.5 43t35.5 114q0 72 -36 110.5t-106 38.5q-49 0 -82.5 -24.5t-48.5 -66.5
h-108v421z" />
    <glyph glyph-name="six" unicode="6" horiz-adv-x="642" 
d="M557 560h-105q-22 92 -121 92q-79 0 -118 -60.5t-41 -200.5q26 44 76 68t108 24q100 0 162 -64t62 -176q0 -107 -63 -175t-176 -68q-78 0 -131 26t-82.5 78t-41.5 118.5t-12 158.5q0 366 258 366q100 0 157.5 -54t67.5 -133zM331 387q-61 0 -103.5 -36.5t-42.5 -105.5
t39.5 -109.5t110.5 -40.5q63 0 99.5 39t36.5 104q0 68 -35.5 108.5t-104.5 40.5z" />
    <glyph glyph-name="seven" unicode="7" horiz-adv-x="560" 
d="M40 726h482v-85l-278 -641h-115l281 629h-370v97z" />
    <glyph glyph-name="eight" unicode="8" horiz-adv-x="638" 
d="M183 381q-104 52 -104 164q0 84 62.5 140.5t177.5 56.5t177.5 -56.5t62.5 -140.5q0 -56 -28.5 -98.5t-75.5 -65.5q57 -21 90 -68.5t33 -111.5q0 -99 -72.5 -159t-186.5 -60t-186 60t-72 159q0 65 33 112t89 68zM319 417q57 0 94 32t37 82q0 56 -35 86t-96 30
q-60 0 -95 -30t-35 -87q0 -50 36.5 -81.5t93.5 -31.5zM319 331q-66 0 -107.5 -32.5t-41.5 -93.5q0 -57 40 -92.5t109 -35.5q68 0 107.5 36t39.5 92q0 60 -40.5 93t-106.5 33z" />
    <glyph glyph-name="nine" unicode="9" horiz-adv-x="635" 
d="M97 198h105q20 -102 132 -102q71 0 104 56t33 191q-24 -34 -67.5 -52.5t-94.5 -18.5q-101 0 -166.5 61t-65.5 172q0 110 64.5 175.5t177.5 65.5q136 0 193.5 -90.5t57.5 -277.5q0 -195 -53 -286t-190 -91q-107 0 -165 56t-65 141zM329 368q60 0 94.5 37.5t34.5 99.5
q0 69 -36.5 107.5t-99.5 38.5t-99.5 -39.5t-36.5 -103.5q0 -61 35.5 -100.5t107.5 -39.5z" />
    <glyph glyph-name="colon" unicode=":" horiz-adv-x="245" 
d="M193 66q0 -31 -21 -52t-51 -21q-31 0 -52 21t-21 52t21 52t52 21q30 0 51 -21t21 -52zM193 486q0 -31 -21 -52t-51 -21q-31 0 -52 21t-21 52t21 52t52 21q30 0 51 -21t21 -52z" />
    <glyph glyph-name="semicolon" unicode=";" horiz-adv-x="304" 
d="M215 486q0 -31 -21 -52t-51 -21q-31 0 -52 21t-21 52t21 52t52 21q30 0 51 -21t21 -52zM32 -139l71 276h124l-121 -276h-74z" />
    <glyph glyph-name="less" unicode="&#x3c;" horiz-adv-x="612" 
d="M241 361l231 -227h-144l-230 227l230 227h144z" />
    <glyph glyph-name="equal" unicode="=" horiz-adv-x="774" 
d="M121 200v96h532v-96h-532zM121 427v96h532v-96h-532z" />
    <glyph glyph-name="greater" unicode="&#x3e;" horiz-adv-x="590" 
d="M112 134l231 227l-231 227h144l230 -227l-230 -227h-144z" />
    <glyph glyph-name="question" unicode="?" horiz-adv-x="538" 
d="M40 499q-1 92 60 149t162 57q102 0 163.5 -56t61.5 -153q0 -101 -64 -152t-170 -51l-4 -79h-99l-5 157h33q46 0 79.5 5t62.5 18t43.5 38.5t14.5 63.5q0 53 -30.5 83t-84.5 30t-85 -29t-31 -81h-107zM270 66q0 -31 -21 -52t-51 -21q-31 0 -52 21t-21 52t21 52t52 21
q30 0 51 -21t21 -52z" />
    <glyph glyph-name="at" unicode="@" horiz-adv-x="1025" 
d="M727 -7q-101 0 -116 86q-31 -40 -78 -63t-98 -23q-77 0 -120.5 46.5t-43.5 126.5q0 117 70.5 202t177.5 85q87 0 122 -59l9 50h99l-50 -286q-7 -45 1.5 -67t43.5 -22q29 0 53 23t37.5 59.5t21 76.5t7.5 78q0 127 -74 194t-215 67q-178 0 -294.5 -122.5t-116.5 -305.5
q0 -128 76 -195t217 -67q95 0 166 35l15 -76q-91 -39 -204 -39q-165 0 -264 90.5t-99 242.5q0 143 65.5 261t184.5 186.5t268 68.5q172 0 269.5 -91.5t97.5 -243.5q0 -80 -26 -151t-79 -119t-123 -48zM621 257q0 48 -26.5 78.5t-74.5 30.5q-64 0 -103.5 -55.5t-39.5 -127.5
q0 -47 23 -74.5t70 -27.5q63 0 107 53t44 123z" />
    <glyph glyph-name="A" unicode="A" horiz-adv-x="697" 
d="M544 0l-50 142h-291l-50 -142h-119l249 696h132l249 -696h-120zM462 235l-113 323l-114 -323h227z" />
    <glyph glyph-name="B" unicode="B" horiz-adv-x="630" 
d="M467 199q0 51 -35 81t-93 30h-150v-217h154q58 0 91 28t33 78zM449 502q0 47 -31.5 73.5t-87.5 26.5h-141v-199h141q56 0 87.5 25.5t31.5 73.5zM581 187q0 -81 -62 -134t-166 -53h-278v695h265q106 0 165.5 -51t59.5 -128q0 -60 -32 -100t-86 -59q56 -10 95 -59t39 -111z
" />
    <glyph glyph-name="C" unicode="C" horiz-adv-x="773" 
d="M37 349q0 154 103 254.5t252 100.5q111 0 197.5 -54.5t125.5 -154.5h-137q-54 109 -186 109q-105 0 -171.5 -69.5t-66.5 -185.5t66.5 -186t171.5 -70q132 0 186 109h137q-39 -100 -125.5 -154t-197.5 -54q-149 0 -252 100t-103 255z" />
    <glyph glyph-name="D" unicode="D" horiz-adv-x="709" 
d="M302 695q168 0 268.5 -94.5t100.5 -255.5q0 -160 -100.5 -252.5t-268.5 -92.5h-227v695h227zM189 93h113q122 0 187 66t65 186q0 121 -65 189t-187 68h-113v-509z" />
    <glyph glyph-name="E" unicode="E" horiz-adv-x="524" 
d="M459 696v-93h-270v-204h240v-93h-240v-213h270v-93h-384v696h384z" />
    <glyph glyph-name="F" unicode="F" horiz-adv-x="515" 
d="M75 0v695h409v-93h-295v-205h230v-93h-230v-304h-114z" />
    <glyph glyph-name="G" unicode="G" horiz-adv-x="773" 
d="M392 704q111 0 197.5 -54.5t125.5 -154.5h-137q-56 105 -186 105q-105 0 -171.5 -69t-66.5 -182q0 -114 66.5 -183t171.5 -69q93 0 151 52t71 141h-261v91h383v-89q-16 -125 -112 -211.5t-232 -86.5q-149 0 -252 100t-103 255q0 154 103 254.5t252 100.5z" />
    <glyph glyph-name="H" unicode="H" horiz-adv-x="705" 
d="M516 0v304h-327v-304h-114v695h114v-298h327v298h114v-695h-114z" />
    <glyph glyph-name="I" unicode="I" horiz-adv-x="264" 
d="M75 0v695h114v-695h-114z" />
    <glyph glyph-name="J" unicode="J" horiz-adv-x="564" 
d="M339 194v501h115v-501q0 -93 -56.5 -147t-148.5 -54t-148.5 54t-56.5 147h115q1 -46 23.5 -73t66.5 -27t67 27.5t23 72.5z" />
    <glyph glyph-name="K" unicode="K" horiz-adv-x="633" 
d="M458 0l-269 311v-311h-114v695h114v-317l270 317h143l-302 -348l307 -347h-149z" />
    <glyph glyph-name="L" unicode="L" horiz-adv-x="444" 
d="M75 695h114v-603h235v-92h-349v695z" />
    <glyph glyph-name="M" unicode="M" horiz-adv-x="882" 
d="M75 0v695h123l244 -545l243 545h122v-695h-114v476l-212 -476h-79l-213 476v-476h-114z" />
    <glyph glyph-name="N" unicode="N" horiz-adv-x="721" 
d="M532 696h114v-696h-114l-343 519v-519h-114v696h114l343 -518v518z" />
    <glyph glyph-name="O" unicode="O" horiz-adv-x="784" 
d="M747 349q0 -155 -102.5 -255.5t-252.5 -100.5q-149 0 -252 100.5t-103 255.5q0 154 103 254.5t252 100.5q150 0 252.5 -100.5t102.5 -254.5zM154 349q0 -116 66.5 -186.5t171.5 -70.5t171.5 70.5t66.5 186.5t-66.5 185.5t-171.5 69.5t-171.5 -69.5t-66.5 -185.5z" />
    <glyph glyph-name="P" unicode="P" horiz-adv-x="595" 
d="M189 375h126q129 0 129 113q0 114 -129 114h-126v-227zM561 488q0 -85 -60.5 -145.5t-185.5 -60.5h-126v-282h-114v695h240q118 0 182 -58.5t64 -148.5z" />
    <glyph glyph-name="Q" unicode="Q" horiz-adv-x="787" 
d="M154 349q0 -116 66.5 -186.5t171.5 -70.5t171.5 70.5t66.5 186.5t-66.5 185.5t-171.5 69.5t-171.5 -69.5t-66.5 -185.5zM747 349q0 -96 -41.5 -173.5t-114.5 -124.5l167 -177h-145l-122 132q-45 -13 -99 -13q-149 0 -252 100.5t-103 255.5q0 154 103 254.5t252 100.5
q150 0 252.5 -100.5t102.5 -254.5z" />
    <glyph glyph-name="R" unicode="R" horiz-adv-x="632" 
d="M444 487q0 54 -32 84.5t-97 30.5h-126v-233h126q64 0 96.5 32t32.5 86zM75 695h240q118 0 182 -59t64 -149q0 -68 -39.5 -123.5t-121.5 -75.5l172 -288h-136l-160 278h-87v-278h-114v695z" />
    <glyph glyph-name="S" unicode="S" horiz-adv-x="604" 
d="M544 197q0 -83 -64.5 -143.5t-175.5 -60.5q-107 0 -176.5 54.5t-69.5 144.5h122q4 -45 35.5 -74t88.5 -29q59 0 92 28.5t33 73.5q0 34 -20.5 56.5t-53 35t-71.5 22t-78.5 23t-72 33t-53 56.5t-20.5 89q0 91 66 144.5t173 53.5q101 0 165.5 -50.5t71.5 -138.5h-126
q-3 37 -34 64t-83 28q-52 2 -84.5 -23.5t-32.5 -73.5q0 -32 20.5 -53.5t53 -33.5t71.5 -22t78 -24t71.5 -34t53 -57t20.5 -89z" />
    <glyph glyph-name="T" unicode="T" horiz-adv-x="564" 
d="M39 602v93h485v-93h-185v-602h-114v602h-186z" />
    <glyph glyph-name="U" unicode="U" horiz-adv-x="690" 
d="M74 254v441h114v-443q0 -79 41.5 -119t115.5 -40q75 0 116.5 40t41.5 119v443h114v-441q0 -126 -78.5 -193.5t-194.5 -67.5q-117 0 -193.5 67t-76.5 194z" />
    <glyph glyph-name="V" unicode="V" horiz-adv-x="694" 
d="M347 117l207 578h120l-261 -695h-132l-262 695h122z" />
    <glyph glyph-name="W" unicode="W" horiz-adv-x="999" 
d="M216 -1l-197 696h121l144 -566l156 566h128l145 -563l145 563h122l-206 -695h-129l-146 526l-155 -526z" />
    <glyph glyph-name="X" unicode="X" horiz-adv-x="660" 
d="M482 0l-157 252l-147 -252h-127l216 347l-217 348h128l158 -254l148 254h127l-217 -348l216 -347h-128z" />
    <glyph glyph-name="Y" unicode="Y" horiz-adv-x="605" 
d="M246 252l-231 443h127l161 -341l161 341h126l-230 -443v-252h-114v252z" />
    <glyph glyph-name="Z" unicode="Z" horiz-adv-x="558" 
d="M508 695v-89l-323 -507h323v-99h-458v89l322 507h-322v99h458z" />
    <glyph glyph-name="bracketleft" unicode="[" horiz-adv-x="485" 
d="M148 -186v1120h208v-94h-101v-931h101v-95h-208z" />
    <glyph glyph-name="backslash" unicode="\" horiz-adv-x="717" 
d="M276 944l300 -1119h-112l-300 1119h112z" />
    <glyph glyph-name="bracketright" unicode="]" horiz-adv-x="484" 
d="M336 -186v1120h-208v-94h101v-931h-101v-95h208z" />
    <glyph glyph-name="asciicircum" unicode="^" horiz-adv-x="654" 
d="M500 168l-172 390l-174 -390h-118l237 528h108l238 -528h-119z" />
    <glyph glyph-name="underscore" unicode="_" horiz-adv-x="798" 
d="M126 -146v106h558v-106h-558z" />
    <glyph glyph-name="grave" unicode="`" horiz-adv-x="254" 
d="M10 699v97l221 -122v-84z" />
    <glyph glyph-name="a" unicode="a" horiz-adv-x="678" 
d="M37 278q0 125 74.5 203.5t185.5 78.5q65 0 113.5 -25.5t77.5 -63.5v80h115v-551h-115v82q-29 -39 -79 -65t-114 -26q-109 0 -183.5 80.5t-74.5 206.5zM488 276q0 85 -49.5 135t-117.5 50t-117.5 -49t-49.5 -134t49.5 -136.5t117.5 -51.5t117.5 50.5t49.5 135.5z" />
    <glyph glyph-name="b" unicode="b" horiz-adv-x="678" 
d="M189 469q29 40 79.5 65.5t112.5 25.5q111 0 185 -78t74 -204t-74.5 -206.5t-184.5 -80.5q-125 0 -192 89v-80h-114v740h114v-271zM524 278q0 85 -49.5 134t-118.5 49q-68 0 -117.5 -50t-49.5 -135t49.5 -135.5t117.5 -50.5t118 51.5t50 136.5z" />
    <glyph glyph-name="c" unicode="c" horiz-adv-x="600" 
d="M37 276q0 128 75.5 206t194.5 78q100 0 165.5 -47.5t88.5 -135.5h-123q-31 87 -131 87q-70 0 -111.5 -49.5t-41.5 -138.5t41.5 -139t111.5 -50q99 0 131 87h123q-24 -84 -90 -133.5t-164 -49.5q-120 0 -195 78t-75 207z" />
    <glyph glyph-name="d" unicode="d" horiz-adv-x="678" 
d="M37 278q0 125 74.5 203.5t186.5 78.5q54 0 106.5 -23.5t83.5 -62.5v266h115v-740h-115v83q-28 -40 -77.5 -66t-113.5 -26q-110 0 -185 80.5t-75 206.5zM488 276q0 85 -49.5 135t-117.5 50t-117.5 -49t-49.5 -134t49.5 -136.5t117.5 -51.5t117.5 50.5t49.5 135.5z" />
    <glyph glyph-name="e" unicode="e" horiz-adv-x="617" 
d="M307 464q-59 0 -100.5 -37.5t-50.5 -101.5h305q-1 63 -45 101t-109 38zM565 164q-25 -76 -90.5 -124.5t-162.5 -48.5q-120 0 -197.5 78.5t-77.5 206.5q0 129 76 206.5t199 77.5q118 0 193 -75t75 -196q0 -31 -4 -56h-421q6 -67 49.5 -106.5t107.5 -39.5q92 0 130 77h123z
" />
    <glyph glyph-name="f" unicode="f" horiz-adv-x="332" 
d="M89 0v458h-65v93h65v39q0 95 50.5 138.5t158.5 43.5v-95q-52 0 -73 -19.5t-21 -67.5v-39h102v-93h-102v-458h-115z" />
    <glyph glyph-name="g" unicode="g" horiz-adv-x="678" 
d="M37 278q0 125 74.5 203.5t185.5 78.5q64 0 113.5 -25.5t77.5 -63.5v80h115v-560q0 -116 -71.5 -189.5t-197.5 -73.5q-112 0 -186 52.5t-84 142.5h113q13 -43 55.5 -69.5t101.5 -26.5q69 0 111.5 42t42.5 122v92q-29 -39 -78.5 -65.5t-112.5 -26.5q-110 0 -185 80.5
t-75 206.5zM488 276q0 85 -49.5 135t-117.5 50t-117.5 -49t-49.5 -134t49.5 -136.5t117.5 -51.5t117.5 50.5t49.5 135.5z" />
    <glyph glyph-name="h" unicode="h" horiz-adv-x="649" 
d="M75 0v740h114v-253q60 73 171 73q96 0 157.5 -61.5t61.5 -173.5v-325h-113v308q0 74 -37 113.5t-101 39.5t-101.5 -39.5t-37.5 -113.5v-308h-114z" />
    <glyph glyph-name="i" unicode="i" horiz-adv-x="264" 
d="M75 0v551h114v-551h-114zM133 624q-31 0 -52 21t-21 52t21 52t52 21q30 0 51 -21t21 -52t-21 -52t-51 -21z" />
    <glyph glyph-name="j" unicode="j" horiz-adv-x="264" 
d="M133 624q-31 0 -52 21t-21 52t21 52t52 21q30 0 51 -21t21 -52t-21 -52t-51 -21zM75 551h114v-659q0 -154 -158 -154h-59v96h39q35 0 49.5 13.5t14.5 44.5v659z" />
    <glyph glyph-name="k" unicode="k" horiz-adv-x="554" 
d="M75 0v740h114v-430l200 241h158l-254 -276l254 -275h-154l-204 237v-237h-114z" />
    <glyph glyph-name="l" unicode="l" horiz-adv-x="264" 
d="M75 0v740h114v-740h-114z" />
    <glyph glyph-name="m" unicode="m" horiz-adv-x="1039" 
d="M856 0v308q0 74 -37 113.5t-101 39.5t-101.5 -39.5t-37.5 -113.5v-308h-113v308q0 74 -37 113.5t-101 39.5t-101.5 -39.5t-37.5 -113.5v-308h-114v551h114v-63q59 72 163 72q140 0 198 -109q25 50 78 79.5t114 29.5q100 0 163.5 -61.5t63.5 -173.5v-325h-113z" />
    <glyph glyph-name="n" unicode="n" horiz-adv-x="649" 
d="M466 0v308q0 74 -37 113.5t-101 39.5t-101.5 -39.5t-37.5 -113.5v-308h-114v551h114v-63q59 72 164 72q100 0 163 -61.5t63 -173.5v-325h-113z" />
    <glyph glyph-name="o" unicode="o" horiz-adv-x="638" 
d="M600 276q0 -127 -82.5 -206t-203.5 -79q-120 0 -198 78.5t-78 206.5q0 127 80.5 205.5t200.5 78.5t200.5 -78.5t80.5 -205.5zM154 276q0 -89 45.5 -137.5t114.5 -48.5t119 49t50 137q0 89 -48.5 137t-117.5 48t-116 -48t-47 -137z" />
    <glyph glyph-name="p" unicode="p" horiz-adv-x="678" 
d="M189 470q29 38 79 64t113 26q111 0 185 -78.5t74 -203.5q0 -126 -74.5 -206.5t-184.5 -80.5q-117 0 -192 89v-342h-114v813h114v-81zM524 278q0 85 -49.5 134t-118.5 49q-68 0 -117.5 -50t-49.5 -135t49.5 -135.5t117.5 -50.5t118 51.5t50 136.5z" />
    <glyph glyph-name="q" unicode="q" horiz-adv-x="678" 
d="M37 278q0 125 74.5 203.5t186.5 78.5q64 0 113.5 -26t76.5 -63v80h115v-813h-115v342q-27 -37 -78 -63t-116 -26q-108 0 -182.5 80.5t-74.5 206.5zM488 276q0 85 -49.5 135t-117.5 50t-117.5 -49t-49.5 -134t49.5 -136.5t117.5 -51.5t117.5 50.5t49.5 135.5z" />
    <glyph glyph-name="r" unicode="r" horiz-adv-x="384" 
d="M189 290v-290h-114v551h114v-80q52 89 165 89v-118h-29q-67 0 -101.5 -34t-34.5 -118z" />
    <glyph glyph-name="s" unicode="s" horiz-adv-x="534" 
d="M486 154q0 -71 -57.5 -117t-153.5 -46q-98 0 -162 51t-68 127h118q3 -35 33.5 -58.5t76.5 -23.5q48 0 74.5 18.5t26.5 47.5t-33 47t-80 29.5t-94 27.5t-80 52t-33 92q0 68 58.5 113.5t153.5 45.5q94 0 151.5 -47.5t61.5 -129.5h-114q-3 37 -30 59t-73 22q-45 0 -69 -17
t-24 -45q0 -30 32 -48.5t78 -30t92.5 -27.5t79.5 -51.5t35 -90.5z" />
    <glyph glyph-name="t" unicode="t" horiz-adv-x="372" 
d="M93 153v305h-65v93h65v137h115v-137h134v-93h-134v-305q0 -31 14.5 -44.5t49.5 -13.5h70v-95h-90q-159 0 -159 153z" />
    <glyph glyph-name="u" unicode="u" horiz-adv-x="649" 
d="M574 551v-551h-114v66q-27 -35 -70.5 -54.5t-92.5 -19.5q-100 0 -163.5 61.5t-63.5 173.5v324h113v-307q0 -74 37 -113.5t101 -39.5t101.5 39.5t37.5 113.5v307h114z" />
    <glyph glyph-name="v" unicode="v" horiz-adv-x="576" 
d="M10 551h122l156 -449l156 449h121l-210 -551h-136z" />
    <glyph glyph-name="w" unicode="w" horiz-adv-x="825" 
d="M182 0l-172 551h116l115 -443l117 443h119l112 -441l114 441h112l-171 -551h-120l-111 407l-111 -407h-120z" />
    <glyph glyph-name="x" unicode="x" horiz-adv-x="499" 
d="M360 0l-119 187l-112 -187h-119l178 271l-178 280h129l119 -187l112 187h119l-178 -272l178 -279h-129z" />
    <glyph glyph-name="y" unicode="y" horiz-adv-x="582" 
d="M292 131l161 420h118l-338 -810h-118l112 268l-217 542h127z" />
    <glyph glyph-name="z" unicode="z" horiz-adv-x="471" 
d="M426 551v-93l-250 -365h250v-93h-382v93l251 365h-251v93h382z" />
    <glyph glyph-name="braceleft" unicode="{" horiz-adv-x="516" 
d="M225 239q0 39 -25.5 63t-73.5 29v86q48 5 73.5 29t25.5 63q0 37 -8.5 135.5t-8.5 140.5q0 71 41.5 111t109.5 40h67v-99h-44q-63 0 -63 -61q0 -32 8 -129t8 -142q0 -109 -104 -130v-2q104 -21 104 -130q0 -45 -8 -142t-8 -129q0 -61 63 -61h44v-99h-67q-68 0 -109.5 40
t-41.5 111q0 42 8.5 140.5t8.5 135.5z" />
    <glyph glyph-name="bar" unicode="|" horiz-adv-x="324" 
d="M105 801h114v-914h-114v914z" />
    <glyph glyph-name="braceright" unicode="}" horiz-adv-x="516" 
d="M291 239q0 39 25.5 63t73.5 29v86q-48 5 -73.5 29t-25.5 63q0 37 8.5 135.5t8.5 140.5q0 71 -41.5 111t-109.5 40h-67v-99h44q63 0 63 -61q0 -32 -8 -129t-8 -142q0 -109 104 -130v-2q-104 -21 -104 -130q0 -45 8 -142t8 -129q0 -61 -63 -61h-44v-99h67q68 0 109.5 40
t41.5 111q0 42 -8.5 140.5t-8.5 135.5z" />
    <glyph glyph-name="asciitilde" unicode="~" horiz-adv-x="553" 
d="M36 238q28 165 159 165q42 0 93.5 -32.5t77.5 -32.5q25 0 44.5 16.5t23.5 46.5h83q-28 -165 -160 -165q-42 0 -92.5 32.5t-77.5 32.5q-26 0 -45.5 -16.5t-23.5 -46.5h-82z" />
    <glyph glyph-name="uni00A0" unicode="&#xa0;" horiz-adv-x="260" 
 />
    <glyph glyph-name="exclamdown" unicode="&#xa1;" horiz-adv-x="321" 
d="M110 350l-13 -485h121l-13 485h-95zM233 494q0 31 -21 52t-51 21q-31 0 -52 -21t-21 -52t21 -52t52 -21q30 0 51 21t21 52z" />
    <glyph glyph-name="cent" unicode="&#xa2;" horiz-adv-x="690" 
d="M565 174q-8 -70 -63 -118t-141 -57v-87h-65v87q-111 10 -170.5 82t-59.5 178t59.5 178.5t170.5 82.5v87h65v-87q86 -9 141 -57t63 -118h-106q-25 82 -130 82q-71 0 -113 -45t-42 -123t42 -122.5t113 -44.5q105 0 130 82h106z" />
    <glyph glyph-name="sterling" unicode="&#xa3;" horiz-adv-x="646" 
d="M106 503q0 101 63 159.5t164 58.5q107 0 162 -60t57 -153h-104q0 54 -28 85.5t-87 31.5q-54 0 -86.5 -31t-32.5 -97q0 -47 23 -116h194v-79h-171q5 -23 5 -43q0 -97 -67 -168h360v-93h-463l-20 62q42 45 62 89.5t20 110.5q0 20 -5 42h-110v79h85q-21 63 -21 122z" />
    <glyph glyph-name="currency" unicode="&#xa4;" horiz-adv-x="548" 
d="M365 377q0 51 -27 79.5t-65 28.5t-64 -28.5t-26 -79.5t25.5 -79t63.5 -28t65.5 28.5t27.5 78.5zM438 164l-62 61q-44 -26 -104 -26q-57 0 -101 25l-60 -60l-51 51l58 59q-29 43 -29 103q0 62 31 105l-60 59l51 51l62 -62q45 25 101 25q57 0 102 -25l62 62l50 -51l-59 -60
q31 -43 31 -104q0 -60 -31 -103l59 -59z" />
    <glyph glyph-name="yen" unicode="&#xa5;" horiz-adv-x="605" 
d="M246 252l-31 59l-169 2v82h125l-156 300h127l160 -339l160 339h128l-156 -300h126v-82l-169 -2l-31 -59v-30h200v-82h-200v-140h-114v140h-200v82h200v30z" />
    <glyph glyph-name="brokenbar" unicode="&#xa6;" horiz-adv-x="324" 
d="M105 275h114v-388h-114v388zM219 413h-114v388h114v-388z" />
    <glyph glyph-name="section" unicode="&#xa7;" horiz-adv-x="578" 
d="M74 534q0 70 58.5 118t155.5 48q93 0 151.5 -43.5t58.5 -121.5h-114q-7 86 -96 86q-100 0 -100 -77q0 -34 31 -56t126 -56q98 -35 145 -78t47 -110q0 -109 -122 -160q89 -51 89 -130q0 -70 -58.5 -118t-155.5 -48q-93 0 -151.5 43.5t-58.5 121.5h114q7 -86 96 -86
q100 0 100 77q0 34 -31 56t-126 56q-98 35 -145 78t-47 110q0 54 31.5 96t91.5 64q-90 51 -90 130zM420 244q0 44 -36.5 74t-95.5 30t-94.5 -30t-35.5 -74q0 -43 36.5 -73.5t96.5 -30.5q59 0 94 30t35 74z" />
    <glyph glyph-name="dieresis" unicode="&#xa8;" horiz-adv-x="312" 
d="M70 620q-26 0 -43 17t-17 43q0 25 17.5 42.5t42.5 17.5t42.5 -17.5t17.5 -42.5t-17.5 -42.5t-42.5 -17.5zM242 620q-26 0 -43 17t-17 43q0 25 17.5 42.5t42.5 17.5t42.5 -17.5t17.5 -42.5t-17.5 -42.5t-42.5 -17.5z" />
    <glyph glyph-name="copyright" unicode="&#xa9;" horiz-adv-x="789" 
d="M46 348q0 157 97 256.5t252 99.5q154 0 251 -99.5t97 -256.5t-97 -257t-251 -100q-155 0 -252 100t-97 257zM693 348q0 141 -80.5 225.5t-217.5 84.5q-138 0 -218.5 -84t-80.5 -226q0 -140 81 -225.5t218 -85.5q136 0 217 85.5t81 225.5zM597 431q-19 70 -73 108.5
t-132 38.5q-94 0 -156 -63t-62 -166t62.5 -166.5t155.5 -63.5q76 0 131 40.5t74 106.5h-104q-26 -66 -101 -66q-53 0 -85 38.5t-32 110.5t32 110t85 38q80 0 101 -66h104z" />
    <glyph glyph-name="ordfeminine" unicode="&#xaa;" horiz-adv-x="456" 
d="M202 347q-73 0 -122 52t-49 131q0 78 48.5 128.5t119.5 50.5q82 0 126 -54v48h89v-350h-89v46q-39 -52 -123 -52zM224 640q-42 0 -71.5 -30t-29.5 -81q0 -52 30 -82.5t71 -30.5q42 0 71.5 30t29.5 82t-29.5 82t-71.5 30z" />
    <glyph glyph-name="guillemotleft" unicode="&#xab;" horiz-adv-x="489" 
d="M151 295l96 -175h-110l-92 175l92 175h110zM343 295l96 -175h-110l-92 175l92 175h110z" />
    <glyph glyph-name="logicalnot" unicode="&#xac;" horiz-adv-x="649" 
d="M37 346v89h568v-227h-114v138h-454z" />
    <glyph glyph-name="uni00AD" unicode="&#xad;" horiz-adv-x="585" 
d="M87 314v96h411v-96h-411z" />
    <glyph glyph-name="registered" unicode="&#xae;" horiz-adv-x="517" 
d="M259 659q-73 0 -116 -45t-43 -118t43 -118t116 -45q72 0 115.5 45t43.5 118t-43.5 118t-115.5 45zM259 287q-91 0 -150 58.5t-59 150.5t59 150.5t150 58.5t149.5 -59t58.5 -150t-58.5 -150t-149.5 -59zM351 536q0 -45 -41 -63l53 -82h-76l-44 75h-7v-75h-63v215h101
q35 0 56 -19.5t21 -50.5zM270 550h-34v-33h34q19 0 19 17q0 16 -19 16z" />
    <glyph glyph-name="macron" unicode="&#xaf;" horiz-adv-x="386" 
d="M10 635v85h366v-85h-366z" />
    <glyph glyph-name="degree" unicode="&#xb0;" horiz-adv-x="427" 
d="M28 525q0 80 52 128.5t134 48.5q81 0 133 -48.5t52 -128.5t-53 -129t-135 -49t-132.5 49t-50.5 129zM308 525q0 53 -28 82.5t-68 29.5q-39 0 -66.5 -29.5t-27.5 -82.5q0 -54 26.5 -82.5t66.5 -28.5t68.5 29t28.5 82z" />
    <glyph glyph-name="plusminus" unicode="&#xb1;" horiz-adv-x="717" 
d="M306 621h106v-153h201v-96h-201v-149h201v-96h-509v96h202v149h-202v96h202v153z" />
    <glyph glyph-name="twosuperior" unicode="&#xb2;" horiz-adv-x="340" 
d="M27 605q2 48 37.5 77t97.5 29q61 0 98 -33.5t37 -80.5q0 -36 -21.5 -64t-72.5 -62l-73 -47h168v-72h-269v66l108 79q66 51 66 96q0 23 -12.5 36.5t-31.5 13.5q-37 0 -42 -38h-90z" />
    <glyph glyph-name="threesuperior" unicode="&#xb3;" horiz-adv-x="342" 
d="M22 609q4 45 43 73.5t101 28.5q58 0 99 -30.5t41 -74.5q0 -59 -61 -77v-2q64 -23 64 -81q0 -42 -41.5 -70.5t-105.5 -28.5t-103 29.5t-41 80.5h88q8 -44 55 -44q23 0 37.5 12t14.5 33q0 20 -15 31.5t-39 11.5h-37v58h34q54 0 54 42q0 20 -13.5 31.5t-37.5 11.5
q-42 0 -52 -35h-85z" />
    <glyph glyph-name="acute" unicode="&#xb4;" horiz-adv-x="241" 
d="M10 674l221 122v-97l-221 -109v84z" />
    <glyph glyph-name="uni00B5" unicode="&#xb5;" horiz-adv-x="654" 
d="M579 551v-551h-114v87q-54 -95 -176 -95q-60 0 -101 31v-285h-113v813h113v-308q0 -74 37 -113.5t101 -39.5t101.5 39.5t37.5 113.5v308h114z" />
    <glyph glyph-name="paragraph" unicode="&#xb6;" horiz-adv-x="630" 
d="M272 695h283v-695h-101v606h-67v-606h-101v282h-14q-118 0 -177.5 57.5t-59.5 148.5t60 149t177 58z" />
    <glyph glyph-name="periodcentered" unicode="&#xb7;" horiz-adv-x="244" 
d="M197 335q0 -31 -21 -52t-51 -21q-31 0 -52 21t-21 52t21 52t52 21q30 0 51 -21t21 -52z" />
    <glyph glyph-name="cedilla" unicode="&#xb8;" horiz-adv-x="279" 
d="M139 7v-55q58 0 94 -27.5t36 -77.5t-36 -79.5t-91 -29.5h-132v72h109q28 0 42 8t14 29t-14 29t-42 8h-55v123h75z" />
    <glyph glyph-name="onesuperior" unicode="&#xb9;" horiz-adv-x="209" 
d="M74 352v284h-54v68h143v-352h-89z" />
    <glyph glyph-name="ordmasculine" unicode="&#xba;" horiz-adv-x="444" 
d="M31 528q0 82 54 131.5t137 49.5t137 -49.5t54 -131.5q0 -80 -55.5 -130.5t-137.5 -50.5q-83 0 -136 50t-53 131zM321 527q0 53 -29.5 83t-70.5 30t-69.5 -29.5t-28.5 -83.5q0 -52 28 -81t69 -29t71 29.5t30 80.5z" />
    <glyph glyph-name="guillemotright" unicode="&#xbb;" horiz-adv-x="489" 
d="M351 120h-109l95 175l-95 175h109l93 -175zM159 120h-109l95 175l-95 175h109l93 -175z" />
    <glyph glyph-name="onequarter" unicode="&#xbc;" horiz-adv-x="682" 
d="M63 0l383 696h107l-382 -696h-108zM598 123h45v-56h-45v-67h-89v67h-186v50l151 236h124v-230zM412 123h99v162zM88 352v284h-54v68h143v-352h-89z" />
    <glyph glyph-name="onehalf" unicode="&#xbd;" horiz-adv-x="701" 
d="M63 0l371 696h108l-371 -696h-108zM88 352v284h-54v68h143v-352h-89zM386 252q2 48 37.5 77t97.5 29q61 0 98 -33.5t37 -80.5q0 -36 -21.5 -64t-72.5 -62l-73 -47h168v-72h-269v66l108 79q66 51 66 96q0 23 -12.5 36.5t-31.5 13.5q-37 0 -42 -38h-90z" />
    <glyph glyph-name="threequarters" unicode="&#xbe;" horiz-adv-x="742" 
d="M139 0l402 696h107l-402 -696h-107zM671 123h45v-56h-45v-67h-89v67h-186v50l151 236h124v-230zM485 123h99v162zM37 609q4 45 43 73.5t101 28.5q58 0 99 -30.5t41 -74.5q0 -59 -61 -77v-2q64 -23 64 -81q0 -42 -41.5 -70.5t-105.5 -28.5t-103 29.5t-41 80.5h88
q8 -44 55 -44q23 0 37.5 12t14.5 33q0 20 -15 31.5t-39 11.5h-37v58h34q54 0 54 42q0 20 -13.5 31.5t-37.5 11.5q-42 0 -52 -35h-85z" />
    <glyph glyph-name="questiondown" unicode="&#xbf;" horiz-adv-x="538" 
d="M498 55q1 -92 -60 -149t-162 -57q-102 0 -163.5 56t-61.5 153q0 101 64 152t170 51l4 79h99l5 -157h-33q-46 0 -79.5 -5t-62.5 -18t-43.5 -38.5t-14.5 -63.5q0 -53 30.5 -83t84.5 -30t85 29t31 81h107zM268 488q0 31 21 52t51 21q31 0 52 -21t21 -52t-21 -52t-52 -21
q-30 0 -51 21t-21 52z" />
    <glyph glyph-name="Agrave" unicode="&#xc0;" horiz-adv-x="697" 
d="M544 0l-50 142h-291l-50 -142h-119l249 696h132l249 -696h-120zM231 844v97l221 -122v-84zM462 235l-113 323l-114 -323h227z" />
    <glyph glyph-name="Aacute" unicode="&#xc1;" horiz-adv-x="697" 
d="M544 0l-50 142h-291l-50 -142h-119l249 696h132l249 -696h-120zM231 819l221 122v-97l-221 -109v84zM462 235l-113 323l-114 -323h227z" />
    <glyph glyph-name="Acircumflex" unicode="&#xc2;" horiz-adv-x="697" 
d="M544 0l-50 142h-291l-50 -142h-119l249 696h132l249 -696h-120zM492 824v-89l-143 86l-143 -86v89l143 83zM462 235l-113 323l-114 -323h227z" />
    <glyph glyph-name="Atilde" unicode="&#xc3;" horiz-adv-x="697" 
d="M544 0l-50 142h-291l-50 -142h-119l249 696h132l249 -696h-120zM186 753q8 58 38 87.5t75 29.5q29 0 63.5 -22t52.5 -22q37 0 43 42h64q-8 -58 -38 -87.5t-75 -29.5q-29 0 -63.5 22.5t-52.5 22.5q-37 0 -43 -43h-64zM462 235l-113 323l-114 -323h227z" />
    <glyph glyph-name="Adieresis" unicode="&#xc4;" horiz-adv-x="697" 
d="M544 0l-50 142h-291l-50 -142h-119l249 696h132l249 -696h-120zM263 765q-25 0 -42.5 17.5t-17.5 42.5t17.5 42.5t42.5 17.5t42.5 -17.5t17.5 -42.5t-17.5 -42.5t-42.5 -17.5zM435 765q-25 0 -42.5 17.5t-17.5 42.5t17.5 42.5t42.5 17.5t42.5 -17.5t17.5 -42.5
t-17.5 -42.5t-42.5 -17.5zM462 235l-113 323l-114 -323h227z" />
    <glyph glyph-name="Aring" unicode="&#xc5;" horiz-adv-x="697" 
d="M544 0l-50 142h-291l-50 -142h-119l249 696h132l249 -696h-120zM349 809q21 0 35 14.5t14 36.5q0 23 -14 37t-35 14q-20 0 -34 -14t-14 -37q0 -22 14 -36.5t34 -14.5zM349 969q48 0 80.5 -30t32.5 -80q0 -49 -32.5 -79t-80.5 -30q-47 0 -79.5 30t-32.5 79q0 50 32.5 80
t79.5 30zM462 235l-113 323l-114 -323h227z" />
    <glyph glyph-name="AE" unicode="&#xc6;" horiz-adv-x="921" 
d="M472 617l-210 -386h210v386zM855 607h-269v-211h239v-88h-239v-219h269v-89h-383v142h-259l-77 -142h-124l383 696h460v-89z" />
    <glyph glyph-name="Ccedilla" unicode="&#xc7;" horiz-adv-x="773" 
d="M37 349q0 154 103 254.5t252 100.5q111 0 197.5 -54.5t125.5 -154.5h-137q-54 109 -186 109q-105 0 -171.5 -69.5t-66.5 -185.5t66.5 -186t171.5 -70q132 0 186 109h137q-36 -92 -112 -145.5t-176 -61.5v-43q58 0 94 -27.5t36 -77.5t-36 -79.5t-91 -29.5h-132v72h109
q28 0 42 8t14 29t-14 29t-42 8h-55v112q-135 14 -225 111.5t-90 241.5z" />
    <glyph glyph-name="Egrave" unicode="&#xc8;" horiz-adv-x="524" 
d="M459 696v-93h-270v-204h240v-93h-240v-213h270v-93h-384v696h384zM144 844v97l221 -122v-84z" />
    <glyph glyph-name="Eacute" unicode="&#xc9;" horiz-adv-x="524" 
d="M459 696v-93h-270v-204h240v-93h-240v-213h270v-93h-384v696h384zM144 819l221 122v-97l-221 -109v84z" />
    <glyph glyph-name="Ecircumflex" unicode="&#xca;" horiz-adv-x="524" 
d="M459 696v-93h-270v-204h240v-93h-240v-213h270v-93h-384v696h384zM405 824v-89l-143 86l-143 -86v89l143 83z" />
    <glyph glyph-name="Edieresis" unicode="&#xcb;" horiz-adv-x="524" 
d="M459 696v-93h-270v-204h240v-93h-240v-213h270v-93h-384v696h384zM176 765q-26 0 -43 17.5t-17 42.5t17.5 42.5t42.5 17.5t42.5 -17.5t17.5 -42.5t-17.5 -42.5t-42.5 -17.5zM348 765q-26 0 -43 17.5t-17 42.5t17.5 42.5t42.5 17.5t42.5 -17.5t17.5 -42.5t-17.5 -42.5
t-42.5 -17.5z" />
    <glyph glyph-name="Igrave" unicode="&#xcc;" horiz-adv-x="264" 
d="M75 0v695h114v-695h-114zM14 844v97l221 -122v-84z" />
    <glyph glyph-name="Iacute" unicode="&#xcd;" horiz-adv-x="264" 
d="M75 0v695h114v-695h-114zM14 819l221 122v-97l-221 -109v84z" />
    <glyph glyph-name="Icircumflex" unicode="&#xce;" horiz-adv-x="264" 
d="M75 0v695h114v-695h-114zM275 824v-89l-143 86l-143 -86v89l143 83z" />
    <glyph glyph-name="Idieresis" unicode="&#xcf;" horiz-adv-x="264" 
d="M75 0v695h114v-695h-114zM46 765q-26 0 -43 17.5t-17 42.5t17.5 42.5t42.5 17.5t42.5 -17.5t17.5 -42.5t-17.5 -42.5t-42.5 -17.5zM218 765q-26 0 -43 17.5t-17 42.5t17.5 42.5t42.5 17.5t42.5 -17.5t17.5 -42.5t-17.5 -42.5t-42.5 -17.5z" />
    <glyph glyph-name="Eth" unicode="&#xd0;" horiz-adv-x="720" 
d="M314 695q168 0 268 -94.5t100 -255.5q0 -160 -100 -252.5t-268 -92.5h-228v293h-77v105h77v297h228zM201 87h113q121 0 186 69t65 189q0 121 -65 189.5t-186 68.5h-113v-205h178v-105h-178v-206z" />
    <glyph glyph-name="Ntilde" unicode="&#xd1;" horiz-adv-x="721" 
d="M532 696h114v-696h-114l-343 519v-519h-114v696h114l343 -518v518zM198 753q8 58 38 87.5t75 29.5q29 0 63.5 -22t52.5 -22q37 0 43 42h64q-8 -58 -38 -87.5t-75 -29.5q-29 0 -63.5 22.5t-52.5 22.5q-37 0 -43 -43h-64z" />
    <glyph glyph-name="Ograve" unicode="&#xd2;" horiz-adv-x="784" 
d="M747 349q0 -155 -102.5 -255.5t-252.5 -100.5q-149 0 -252 100.5t-103 255.5q0 154 103 254.5t252 100.5q150 0 252.5 -100.5t102.5 -254.5zM154 349q0 -116 66.5 -186.5t171.5 -70.5t171.5 70.5t66.5 186.5t-66.5 185.5t-171.5 69.5t-171.5 -69.5t-66.5 -185.5zM274 844
v97l221 -122v-84z" />
    <glyph glyph-name="Oacute" unicode="&#xd3;" horiz-adv-x="784" 
d="M747 349q0 -155 -102.5 -255.5t-252.5 -100.5q-149 0 -252 100.5t-103 255.5q0 154 103 254.5t252 100.5q150 0 252.5 -100.5t102.5 -254.5zM154 349q0 -116 66.5 -186.5t171.5 -70.5t171.5 70.5t66.5 186.5t-66.5 185.5t-171.5 69.5t-171.5 -69.5t-66.5 -185.5zM274 819
l221 122v-97l-221 -109v84z" />
    <glyph glyph-name="Ocircumflex" unicode="&#xd4;" horiz-adv-x="784" 
d="M747 349q0 -155 -102.5 -255.5t-252.5 -100.5q-149 0 -252 100.5t-103 255.5q0 154 103 254.5t252 100.5q150 0 252.5 -100.5t102.5 -254.5zM154 349q0 -116 66.5 -186.5t171.5 -70.5t171.5 70.5t66.5 186.5t-66.5 185.5t-171.5 69.5t-171.5 -69.5t-66.5 -185.5zM535 824
v-89l-143 86l-143 -86v89l143 83z" />
    <glyph glyph-name="Otilde" unicode="&#xd5;" horiz-adv-x="784" 
d="M747 349q0 -155 -102.5 -255.5t-252.5 -100.5q-149 0 -252 100.5t-103 255.5q0 154 103 254.5t252 100.5q150 0 252.5 -100.5t102.5 -254.5zM154 349q0 -116 66.5 -186.5t171.5 -70.5t171.5 70.5t66.5 186.5t-66.5 185.5t-171.5 69.5t-171.5 -69.5t-66.5 -185.5zM229 753
q8 58 38 87.5t75 29.5q29 0 63.5 -22t52.5 -22q37 0 43 42h64q-8 -58 -38 -87.5t-75 -29.5q-29 0 -63.5 22.5t-52.5 22.5q-37 0 -43 -43h-64z" />
    <glyph glyph-name="Odieresis" unicode="&#xd6;" horiz-adv-x="784" 
d="M747 349q0 -155 -102.5 -255.5t-252.5 -100.5q-149 0 -252 100.5t-103 255.5q0 154 103 254.5t252 100.5q150 0 252.5 -100.5t102.5 -254.5zM154 349q0 -116 66.5 -186.5t171.5 -70.5t171.5 70.5t66.5 186.5t-66.5 185.5t-171.5 69.5t-171.5 -69.5t-66.5 -185.5zM306 765
q-26 0 -43 17.5t-17 42.5t17.5 42.5t42.5 17.5t42.5 -17.5t17.5 -42.5t-17.5 -42.5t-42.5 -17.5zM478 765q-26 0 -43 17.5t-17 42.5t17.5 42.5t42.5 17.5t42.5 -17.5t17.5 -42.5t-17.5 -42.5t-42.5 -17.5z" />
    <glyph glyph-name="multiply" unicode="&#xd7;" horiz-adv-x="699" 
d="M198 138l-75 75l153 152l-149 149l73 73l149 -149l149 149l75 -75l-149 -149l151 -152l-73 -73l-152 152z" />
    <glyph glyph-name="Oslash" unicode="&#xd8;" horiz-adv-x="784" 
d="M747 349q0 -155 -102.5 -255.5t-252.5 -100.5q-124 0 -217 70l-58 -63h-91l100 108q-89 100 -89 241q0 154 103 254.5t252 100.5q125 0 218 -70l57 62h91l-99 -107q88 -99 88 -240zM154 349q0 -93 46 -161l339 369q-63 47 -147 47q-105 0 -171.5 -69.5t-66.5 -185.5z
M392 92q105 0 171.5 70.5t66.5 186.5q0 94 -45 159l-339 -368q60 -48 146 -48z" />
    <glyph glyph-name="Ugrave" unicode="&#xd9;" horiz-adv-x="690" 
d="M74 254v441h114v-443q0 -79 41.5 -119t115.5 -40q75 0 116.5 40t41.5 119v443h114v-441q0 -126 -78.5 -193.5t-194.5 -67.5q-117 0 -193.5 67t-76.5 194zM227 844v97l221 -122v-84z" />
    <glyph glyph-name="Uacute" unicode="&#xda;" horiz-adv-x="690" 
d="M74 254v441h114v-443q0 -79 41.5 -119t115.5 -40q75 0 116.5 40t41.5 119v443h114v-441q0 -126 -78.5 -193.5t-194.5 -67.5q-117 0 -193.5 67t-76.5 194zM227 819l221 122v-97l-221 -109v84z" />
    <glyph glyph-name="Ucircumflex" unicode="&#xdb;" horiz-adv-x="690" 
d="M74 254v441h114v-443q0 -79 41.5 -119t115.5 -40q75 0 116.5 40t41.5 119v443h114v-441q0 -126 -78.5 -193.5t-194.5 -67.5q-117 0 -193.5 67t-76.5 194zM488 824v-89l-143 86l-143 -86v89l143 83z" />
    <glyph glyph-name="Udieresis" unicode="&#xdc;" horiz-adv-x="690" 
d="M74 254v441h114v-443q0 -79 41.5 -119t115.5 -40q75 0 116.5 40t41.5 119v443h114v-441q0 -126 -78.5 -193.5t-194.5 -67.5q-117 0 -193.5 67t-76.5 194zM259 765q-25 0 -42.5 17.5t-17.5 42.5t17.5 42.5t42.5 17.5t42.5 -17.5t17.5 -42.5t-17.5 -42.5t-42.5 -17.5z
M431 765q-25 0 -42.5 17.5t-17.5 42.5t17.5 42.5t42.5 17.5t42.5 -17.5t17.5 -42.5t-17.5 -42.5t-42.5 -17.5z" />
    <glyph glyph-name="Yacute" unicode="&#xdd;" horiz-adv-x="605" 
d="M246 252l-231 443h127l161 -341l161 341h126l-230 -443v-252h-114v252zM185 819l221 122v-97l-221 -109v84z" />
    <glyph glyph-name="Thorn" unicode="&#xde;" horiz-adv-x="595" 
d="M189 231h126q65 0 97 31t32 86t-32 86.5t-97 31.5h-126v-235zM561 348q0 -85 -60.5 -145.5t-185.5 -60.5h-126v-142h-114v696h113v-141h127q118 0 182 -58.5t64 -148.5z" />
    <glyph glyph-name="germandbls" unicode="&#xdf;" horiz-adv-x="699" 
d="M54 0v562q0 92 62 151.5t186 59.5q108 0 169 -51t61 -121q0 -43 -21 -79t-46.5 -55.5t-46.5 -40t-21 -36.5q0 -18 21.5 -32.5t83.5 -35.5q75 -25 109 -65.5t34 -101.5q0 -74 -54 -119.5t-148 -45.5q-91 0 -147.5 48t-63.5 135h116q2 -43 26 -67.5t69 -24.5q85 0 85 65
q0 33 -19.5 52.5t-71.5 36.5q-82 27 -118.5 58.5t-36.5 80.5q0 28 14 53t34 44.5t40 37.5t34 39.5t14 43.5q0 41 -31.5 63.5t-86.5 22.5q-71 0 -101.5 -33t-30.5 -98v-547h-114z" />
    <glyph glyph-name="agrave" unicode="&#xe0;" horiz-adv-x="678" 
d="M37 278q0 125 74.5 203.5t185.5 78.5q65 0 113.5 -25.5t77.5 -63.5v80h115v-551h-115v82q-29 -39 -79 -65t-114 -26q-109 0 -183.5 80.5t-74.5 206.5zM488 276q0 85 -49.5 135t-117.5 50t-117.5 -49t-49.5 -134t49.5 -136.5t117.5 -51.5t117.5 50.5t49.5 135.5zM221 699
v97l221 -122v-84z" />
    <glyph glyph-name="aacute" unicode="&#xe1;" horiz-adv-x="678" 
d="M37 278q0 125 74.5 203.5t185.5 78.5q65 0 113.5 -25.5t77.5 -63.5v80h115v-551h-115v82q-29 -39 -79 -65t-114 -26q-109 0 -183.5 80.5t-74.5 206.5zM488 276q0 85 -49.5 135t-117.5 50t-117.5 -49t-49.5 -134t49.5 -136.5t117.5 -51.5t117.5 50.5t49.5 135.5zM221 674
l221 122v-97l-221 -109v84z" />
    <glyph glyph-name="acircumflex" unicode="&#xe2;" horiz-adv-x="678" 
d="M37 278q0 125 74.5 203.5t185.5 78.5q65 0 113.5 -25.5t77.5 -63.5v80h115v-551h-115v82q-29 -39 -79 -65t-114 -26q-109 0 -183.5 80.5t-74.5 206.5zM488 276q0 85 -49.5 135t-117.5 50t-117.5 -49t-49.5 -134t49.5 -136.5t117.5 -51.5t117.5 50.5t49.5 135.5zM482 679
v-89l-143 86l-143 -86v89l143 83z" />
    <glyph glyph-name="atilde" unicode="&#xe3;" horiz-adv-x="678" 
d="M37 278q0 125 74.5 203.5t185.5 78.5q65 0 113.5 -25.5t77.5 -63.5v80h115v-551h-115v82q-29 -39 -79 -65t-114 -26q-109 0 -183.5 80.5t-74.5 206.5zM488 276q0 85 -49.5 135t-117.5 50t-117.5 -49t-49.5 -134t49.5 -136.5t117.5 -51.5t117.5 50.5t49.5 135.5zM176 608
q8 58 38 87.5t75 29.5q29 0 63.5 -22t52.5 -22q37 0 43 42h64q-8 -58 -38 -87.5t-75 -29.5q-29 0 -63.5 22.5t-52.5 22.5q-37 0 -43 -43h-64z" />
    <glyph glyph-name="adieresis" unicode="&#xe4;" horiz-adv-x="678" 
d="M37 278q0 125 74.5 203.5t185.5 78.5q65 0 113.5 -25.5t77.5 -63.5v80h115v-551h-115v82q-29 -39 -79 -65t-114 -26q-109 0 -183.5 80.5t-74.5 206.5zM488 276q0 85 -49.5 135t-117.5 50t-117.5 -49t-49.5 -134t49.5 -136.5t117.5 -51.5t117.5 50.5t49.5 135.5zM253 620
q-25 0 -42.5 17t-17.5 43q0 25 17.5 42.5t42.5 17.5t42.5 -17.5t17.5 -42.5t-17.5 -42.5t-42.5 -17.5zM425 620q-25 0 -42.5 17t-17.5 43q0 25 17.5 42.5t42.5 17.5t42.5 -17.5t17.5 -42.5t-17.5 -42.5t-42.5 -17.5z" />
    <glyph glyph-name="aring" unicode="&#xe5;" horiz-adv-x="678" 
d="M37 278q0 125 74.5 203.5t185.5 78.5q65 0 113.5 -25.5t77.5 -63.5v80h115v-551h-115v82q-29 -39 -79 -65t-114 -26q-109 0 -183.5 80.5t-74.5 206.5zM488 276q0 85 -49.5 135t-117.5 50t-117.5 -49t-49.5 -134t49.5 -136.5t117.5 -51.5t117.5 50.5t49.5 135.5zM339 824
q48 0 80.5 -30t32.5 -80q0 -49 -32.5 -79t-80.5 -30q-47 0 -79.5 30t-32.5 79q0 50 32.5 80t79.5 30zM339 664q21 0 35 14.5t14 36.5q0 23 -14 37t-35 14q-20 0 -34 -14t-14 -37q0 -22 14 -36.5t34 -14.5z" />
    <glyph glyph-name="ae" unicode="&#xe6;" horiz-adv-x="1085" 
d="M770 464q-62 0 -108.5 -40t-56.5 -105h325q-1 65 -46.5 105t-113.5 40zM1033 164q-25 -76 -88.5 -124.5t-155.5 -48.5q-60 0 -113 25.5t-86 66.5v-83h-98v83q-76 -92 -195 -92q-110 0 -185 80.5t-75 206.5t75.5 204t190.5 78q120 0 192 -87v78h95v-78q79 87 199 87
q114 0 186.5 -75.5t72.5 -193.5q0 -29 -4 -54h-439q8 -70 56.5 -110t107.5 -40q108 0 140 77h124zM154 278q0 -85 49.5 -136.5t117.5 -51.5t117.5 50.5t49.5 135.5t-49.5 135t-117.5 50t-117.5 -49t-49.5 -134z" />
    <glyph glyph-name="ccedilla" unicode="&#xe7;" horiz-adv-x="600" 
d="M37 276q0 128 75.5 206t194.5 78q100 0 165.5 -47.5t88.5 -135.5h-123q-31 87 -131 87q-70 0 -111.5 -49.5t-41.5 -138.5t41.5 -139t111.5 -50q99 0 131 87h123q-22 -76 -78.5 -124.5t-141.5 -56.5v-41q58 0 94 -27.5t36 -77.5t-36 -79.5t-91 -29.5h-132v72h109
q28 0 42 8t14 29t-14 29t-42 8h-55v110q-103 13 -166 89t-63 193z" />
    <glyph glyph-name="egrave" unicode="&#xe8;" horiz-adv-x="617" 
d="M307 464q-59 0 -100.5 -37.5t-50.5 -101.5h305q-1 63 -45 101t-109 38zM565 164q-25 -76 -90.5 -124.5t-162.5 -48.5q-120 0 -197.5 78.5t-77.5 206.5q0 129 76 206.5t199 77.5q118 0 193 -75t75 -196q0 -31 -4 -56h-421q6 -67 49.5 -106.5t107.5 -39.5q92 0 130 77h123z
M191 699v97l221 -122v-84z" />
    <glyph glyph-name="eacute" unicode="&#xe9;" horiz-adv-x="617" 
d="M307 464q-59 0 -100.5 -37.5t-50.5 -101.5h305q-1 63 -45 101t-109 38zM565 164q-25 -76 -90.5 -124.5t-162.5 -48.5q-120 0 -197.5 78.5t-77.5 206.5q0 129 76 206.5t199 77.5q118 0 193 -75t75 -196q0 -31 -4 -56h-421q6 -67 49.5 -106.5t107.5 -39.5q92 0 130 77h123z
M191 674l221 122v-97l-221 -109v84z" />
    <glyph glyph-name="ecircumflex" unicode="&#xea;" horiz-adv-x="617" 
d="M307 464q-59 0 -100.5 -37.5t-50.5 -101.5h305q-1 63 -45 101t-109 38zM565 164q-25 -76 -90.5 -124.5t-162.5 -48.5q-120 0 -197.5 78.5t-77.5 206.5q0 129 76 206.5t199 77.5q118 0 193 -75t75 -196q0 -31 -4 -56h-421q6 -67 49.5 -106.5t107.5 -39.5q92 0 130 77h123z
M452 679v-89l-143 86l-143 -86v89l143 83z" />
    <glyph glyph-name="edieresis" unicode="&#xeb;" horiz-adv-x="617" 
d="M307 464q-59 0 -100.5 -37.5t-50.5 -101.5h305q-1 63 -45 101t-109 38zM565 164q-25 -76 -90.5 -124.5t-162.5 -48.5q-120 0 -197.5 78.5t-77.5 206.5q0 129 76 206.5t199 77.5q118 0 193 -75t75 -196q0 -31 -4 -56h-421q6 -67 49.5 -106.5t107.5 -39.5q92 0 130 77h123z
M223 620q-25 0 -42.5 17t-17.5 43q0 25 17.5 42.5t42.5 17.5t42.5 -17.5t17.5 -42.5t-17.5 -42.5t-42.5 -17.5zM395 620q-25 0 -42.5 17t-17.5 43q0 25 17.5 42.5t42.5 17.5t42.5 -17.5t17.5 -42.5t-17.5 -42.5t-42.5 -17.5z" />
    <glyph glyph-name="igrave" unicode="&#xec;" horiz-adv-x="264" 
d="M75 0v551h114v-551h-114zM14 699v97l221 -122v-84z" />
    <glyph glyph-name="iacute" unicode="&#xed;" horiz-adv-x="264" 
d="M75 0v551h114v-551h-114zM14 674l221 122v-97l-221 -109v84z" />
    <glyph glyph-name="icircumflex" unicode="&#xee;" horiz-adv-x="264" 
d="M75 0v551h114v-551h-114zM275 679v-89l-143 86l-143 -86v89l143 83z" />
    <glyph glyph-name="idieresis" unicode="&#xef;" horiz-adv-x="264" 
d="M75 0v551h114v-551h-114zM46 620q-26 0 -43 17t-17 43q0 25 17.5 42.5t42.5 17.5t42.5 -17.5t17.5 -42.5t-17.5 -42.5t-42.5 -17.5zM218 620q-26 0 -43 17t-17 43q0 25 17.5 42.5t42.5 17.5t42.5 -17.5t17.5 -42.5t-17.5 -42.5t-42.5 -17.5z" />
    <glyph glyph-name="eth" unicode="&#xf0;" horiz-adv-x="636" 
d="M264 649l79 26q-34 32 -74 65h116q21 -18 41 -38l125 41v-61l-81 -27q129 -152 129 -338q0 -157 -79 -241.5t-206 -84.5q-120 0 -198.5 78.5t-78.5 206.5q0 127 77.5 205.5t192.5 78.5q91 0 159 -57q-28 65 -79 125l-123 -40v61zM154 276q0 -90 46 -139.5t114 -49.5
q69 0 118.5 50t49.5 139t-48.5 138.5t-117.5 49.5q-68 0 -115 -49.5t-47 -138.5z" />
    <glyph glyph-name="ntilde" unicode="&#xf1;" horiz-adv-x="649" 
d="M189 308v-308h-114v551h114v-63q59 72 164 72q100 0 163 -61.5t63 -173.5v-325h-113v308q0 74 -37 113.5t-101 39.5t-101.5 -39.5t-37.5 -113.5zM172 608q8 58 38 87.5t75 29.5q29 0 63.5 -22t52.5 -22q37 0 43 42h64q-8 -58 -38 -87.5t-75 -29.5q-29 0 -63.5 22.5
t-52.5 22.5q-37 0 -43 -43h-64z" />
    <glyph glyph-name="ograve" unicode="&#xf2;" horiz-adv-x="638" 
d="M600 276q0 -127 -82.5 -206t-203.5 -79q-120 0 -198 78.5t-78 206.5q0 127 80.5 205.5t200.5 78.5t200.5 -78.5t80.5 -205.5zM154 276q0 -89 45.5 -137.5t114.5 -48.5t119 49t50 137q0 89 -48.5 137t-117.5 48t-116 -48t-47 -137zM201 708v97l221 -122v-84z" />
    <glyph glyph-name="oacute" unicode="&#xf3;" horiz-adv-x="638" 
d="M600 276q0 -127 -82.5 -206t-203.5 -79q-120 0 -198 78.5t-78 206.5q0 127 80.5 205.5t200.5 78.5t200.5 -78.5t80.5 -205.5zM154 276q0 -89 45.5 -137.5t114.5 -48.5t119 49t50 137q0 89 -48.5 137t-117.5 48t-116 -48t-47 -137zM201 683l221 122v-97l-221 -109v84z" />
    <glyph glyph-name="ocircumflex" unicode="&#xf4;" horiz-adv-x="638" 
d="M600 276q0 -127 -82.5 -206t-203.5 -79q-120 0 -198 78.5t-78 206.5q0 127 80.5 205.5t200.5 78.5t200.5 -78.5t80.5 -205.5zM154 276q0 -89 45.5 -137.5t114.5 -48.5t119 49t50 137q0 89 -48.5 137t-117.5 48t-116 -48t-47 -137zM462 688v-89l-143 86l-143 -86v89
l143 83z" />
    <glyph glyph-name="otilde" unicode="&#xf5;" horiz-adv-x="638" 
d="M600 276q0 -127 -82.5 -206t-203.5 -79q-120 0 -198 78.5t-78 206.5q0 127 80.5 205.5t200.5 78.5t200.5 -78.5t80.5 -205.5zM154 276q0 -89 45.5 -137.5t114.5 -48.5t119 49t50 137q0 89 -48.5 137t-117.5 48t-116 -48t-47 -137zM156 617q8 58 38 87.5t75 29.5
q29 0 63.5 -22t52.5 -22q37 0 43 42h64q-8 -58 -38 -87.5t-75 -29.5q-29 0 -63.5 22.5t-52.5 22.5q-37 0 -43 -43h-64z" />
    <glyph glyph-name="odieresis" unicode="&#xf6;" horiz-adv-x="638" 
d="M600 276q0 -127 -82.5 -206t-203.5 -79q-120 0 -198 78.5t-78 206.5q0 127 80.5 205.5t200.5 78.5t200.5 -78.5t80.5 -205.5zM154 276q0 -89 45.5 -137.5t114.5 -48.5t119 49t50 137q0 89 -48.5 137t-117.5 48t-116 -48t-47 -137zM233 629q-25 0 -42.5 17.5t-17.5 42.5
t17.5 42.5t42.5 17.5t42.5 -17.5t17.5 -42.5t-17.5 -42.5t-42.5 -17.5zM405 629q-25 0 -42.5 17.5t-17.5 42.5t17.5 42.5t42.5 17.5t42.5 -17.5t17.5 -42.5t-17.5 -42.5t-42.5 -17.5z" />
    <glyph glyph-name="divide" unicode="&#xf7;" horiz-adv-x="679" 
d="M90 314v96h510v-96h-510zM419 148q0 -31 -21 -52t-51 -21q-31 0 -52 21t-21 52t21 52t52 21q30 0 51 -21t21 -52zM419 578q0 -31 -21 -52t-51 -21q-31 0 -52 21t-21 52t21 52t52 21q30 0 51 -21t21 -52z" />
    <glyph glyph-name="oslash" unicode="&#xf8;" horiz-adv-x="638" 
d="M600 276q0 -127 -82.5 -206t-203.5 -79q-96 0 -167 52l-40 -43h-79l76 83q-66 77 -66 193q0 127 80.5 205.5t200.5 78.5q98 0 171 -53l41 44h79l-77 -84q67 -77 67 -191zM154 276q0 -63 26 -110l238 261q-43 34 -101 34q-69 0 -116 -48t-47 -137zM314 90q69 0 119 49
t50 137q0 62 -26 107l-239 -262q40 -31 96 -31z" />
    <glyph glyph-name="ugrave" unicode="&#xf9;" horiz-adv-x="649" 
d="M574 551v-551h-114v66q-27 -35 -70.5 -54.5t-92.5 -19.5q-100 0 -163.5 61.5t-63.5 173.5v324h113v-307q0 -74 37 -113.5t101 -39.5t101.5 39.5t37.5 113.5v307h114zM207 699v97l221 -122v-84z" />
    <glyph glyph-name="uacute" unicode="&#xfa;" horiz-adv-x="649" 
d="M574 551v-551h-114v66q-27 -35 -70.5 -54.5t-92.5 -19.5q-100 0 -163.5 61.5t-63.5 173.5v324h113v-307q0 -74 37 -113.5t101 -39.5t101.5 39.5t37.5 113.5v307h114zM207 674l221 122v-97l-221 -109v84z" />
    <glyph glyph-name="ucircumflex" unicode="&#xfb;" horiz-adv-x="649" 
d="M574 551v-551h-114v66q-27 -35 -70.5 -54.5t-92.5 -19.5q-100 0 -163.5 61.5t-63.5 173.5v324h113v-307q0 -74 37 -113.5t101 -39.5t101.5 39.5t37.5 113.5v307h114zM468 679v-89l-143 86l-143 -86v89l143 83z" />
    <glyph glyph-name="udieresis" unicode="&#xfc;" horiz-adv-x="649" 
d="M574 551v-551h-114v66q-27 -35 -70.5 -54.5t-92.5 -19.5q-100 0 -163.5 61.5t-63.5 173.5v324h113v-307q0 -74 37 -113.5t101 -39.5t101.5 39.5t37.5 113.5v307h114zM239 620q-25 0 -42.5 17t-17.5 43q0 25 17.5 42.5t42.5 17.5t42.5 -17.5t17.5 -42.5t-17.5 -42.5
t-42.5 -17.5zM411 620q-25 0 -42.5 17t-17.5 43q0 25 17.5 42.5t42.5 17.5t42.5 -17.5t17.5 -42.5t-17.5 -42.5t-42.5 -17.5z" />
    <glyph glyph-name="yacute" unicode="&#xfd;" horiz-adv-x="582" 
d="M292 131l161 420h118l-338 -810h-118l112 268l-217 542h127zM173 674l221 122v-97l-221 -109v84z" />
    <glyph glyph-name="thorn" unicode="&#xfe;" horiz-adv-x="678" 
d="M189 453q28 48 77.5 77.5t114.5 29.5q111 0 185 -78.5t74 -203.5q0 -126 -74.5 -206.5t-184.5 -80.5q-65 0 -114 30.5t-78 81.5v-365h-114v1002h114v-287zM524 278q0 85 -49.5 134t-118.5 49q-68 0 -117.5 -50t-49.5 -135t49.5 -135.5t117.5 -50.5t118 51.5t50 136.5z
" />
    <glyph glyph-name="ydieresis" unicode="&#xff;" horiz-adv-x="582" 
d="M292 131l161 420h118l-338 -810h-118l112 268l-217 542h127zM205 620q-25 0 -42.5 17t-17.5 43q0 25 17.5 42.5t42.5 17.5t42.5 -17.5t17.5 -42.5t-17.5 -42.5t-42.5 -17.5zM377 620q-25 0 -42.5 17t-17.5 43q0 25 17.5 42.5t42.5 17.5t42.5 -17.5t17.5 -42.5
t-17.5 -42.5t-42.5 -17.5z" />
    <glyph glyph-name="Amacron" unicode="&#x100;" horiz-adv-x="697" 
d="M544 0l-50 142h-291l-50 -142h-119l249 696h132l249 -696h-120zM166 780v85h366v-85h-366zM462 235l-113 323l-114 -323h227z" />
    <glyph glyph-name="amacron" unicode="&#x101;" horiz-adv-x="678" 
d="M37 278q0 125 74.5 203.5t185.5 78.5q65 0 113.5 -25.5t77.5 -63.5v80h115v-551h-115v82q-29 -39 -79 -65t-114 -26q-109 0 -183.5 80.5t-74.5 206.5zM488 276q0 85 -49.5 135t-117.5 50t-117.5 -49t-49.5 -134t49.5 -136.5t117.5 -51.5t117.5 50.5t49.5 135.5zM156 635
v85h366v-85h-366z" />
    <glyph glyph-name="Abreve" unicode="&#x102;" horiz-adv-x="697" 
d="M544 0l-50 142h-291l-50 -142h-119l249 696h132l249 -696h-120zM500 881q0 -63 -40.5 -101t-110.5 -38t-110 38.5t-40 101.5v21h65q0 -36 19 -54t66 -18t66 18t19 54h66v-22zM462 235l-113 323l-114 -323h227z" />
    <glyph glyph-name="abreve" unicode="&#x103;" horiz-adv-x="678" 
d="M37 278q0 125 74.5 203.5t185.5 78.5q65 0 113.5 -25.5t77.5 -63.5v80h115v-551h-115v82q-29 -39 -79 -65t-114 -26q-109 0 -183.5 80.5t-74.5 206.5zM488 276q0 85 -49.5 135t-117.5 50t-117.5 -49t-49.5 -134t49.5 -136.5t117.5 -51.5t117.5 50.5t49.5 135.5zM490 736
q0 -63 -40.5 -101t-110.5 -38t-110 38.5t-40 101.5v21h65q0 -36 19 -54t66 -18t66 18t19 54h66v-22z" />
    <glyph glyph-name="Aogonek" unicode="&#x104;" horiz-adv-x="697" 
d="M283 696h132l249 -696l-49 -25q-57 -29 -57 -66q0 -21 15 -33.5t40 -12.5q30 0 66 14v-73q-38 -15 -81 -15q-54 0 -93.5 26.5t-39.5 81.5q0 66 75 114l-46 131h-291l-50 -142h-119zM462 235l-113 323l-114 -323h227z" />
    <glyph glyph-name="aogonek" unicode="&#x105;" horiz-adv-x="678" 
d="M37 278q0 125 74.5 203.5t185.5 78.5q65 0 113.5 -25.5t77.5 -63.5v80h115v-551l-49 -25q-57 -29 -57 -66q0 -21 15 -33.5t40 -12.5q30 0 66 14v-73q-38 -15 -81 -15q-54 0 -93.5 26.5t-39.5 81.5q0 69 84 119v66q-29 -39 -79 -65t-114 -26q-109 0 -183.5 80.5
t-74.5 206.5zM488 276q0 85 -49.5 135t-117.5 50t-117.5 -49t-49.5 -134t49.5 -136.5t117.5 -51.5t117.5 50.5t49.5 135.5z" />
    <glyph glyph-name="Cacute" unicode="&#x106;" horiz-adv-x="773" 
d="M37 349q0 154 103 254.5t252 100.5q111 0 197.5 -54.5t125.5 -154.5h-137q-54 109 -186 109q-105 0 -171.5 -69.5t-66.5 -185.5t66.5 -186t171.5 -70q132 0 186 109h137q-39 -100 -125.5 -154t-197.5 -54q-149 0 -252 100t-103 255zM274 827l221 122v-97l-221 -109v84z
" />
    <glyph glyph-name="cacute" unicode="&#x107;" horiz-adv-x="600" 
d="M37 276q0 128 75.5 206t194.5 78q100 0 165.5 -47.5t88.5 -135.5h-123q-31 87 -131 87q-70 0 -111.5 -49.5t-41.5 -138.5t41.5 -139t111.5 -50q99 0 131 87h123q-24 -84 -90 -133.5t-164 -49.5q-120 0 -195 78t-75 207zM182 674l221 122v-97l-221 -109v84z" />
    <glyph glyph-name="Cdotaccent" unicode="&#x10a;" horiz-adv-x="773" 
d="M37 349q0 154 103 254.5t252 100.5q111 0 197.5 -54.5t125.5 -154.5h-137q-54 109 -186 109q-105 0 -171.5 -69.5t-66.5 -185.5t66.5 -186t171.5 -70q132 0 186 109h137q-39 -100 -125.5 -154t-197.5 -54q-149 0 -252 100t-103 255zM392 773q-26 0 -43 17.5t-17 42.5
t17.5 42.5t42.5 17.5t42.5 -17.5t17.5 -42.5t-17.5 -42.5t-42.5 -17.5z" />
    <glyph glyph-name="cdotaccent" unicode="&#x10b;" horiz-adv-x="600" 
d="M37 276q0 128 75.5 206t194.5 78q100 0 165.5 -47.5t88.5 -135.5h-123q-31 87 -131 87q-70 0 -111.5 -49.5t-41.5 -138.5t41.5 -139t111.5 -50q99 0 131 87h123q-24 -84 -90 -133.5t-164 -49.5q-120 0 -195 78t-75 207zM300 620q-26 0 -43 17t-17 43q0 25 17.5 42.5
t42.5 17.5t42.5 -17.5t17.5 -42.5t-17.5 -42.5t-42.5 -17.5z" />
    <glyph glyph-name="Ccaron" unicode="&#x10c;" horiz-adv-x="773" 
d="M37 349q0 154 103 254.5t252 100.5q111 0 197.5 -54.5t125.5 -154.5h-137q-54 109 -186 109q-105 0 -171.5 -69.5t-66.5 -185.5t66.5 -186t171.5 -70q132 0 186 109h137q-39 -100 -125.5 -154t-197.5 -54q-149 0 -252 100t-103 255zM392 829l143 86v-89l-143 -83l-143 83
v89z" />
    <glyph glyph-name="ccaron" unicode="&#x10d;" horiz-adv-x="600" 
d="M37 276q0 128 75.5 206t194.5 78q100 0 165.5 -47.5t88.5 -135.5h-123q-31 87 -131 87q-70 0 -111.5 -49.5t-41.5 -138.5t41.5 -139t111.5 -50q99 0 131 87h123q-24 -84 -90 -133.5t-164 -49.5q-120 0 -195 78t-75 207zM300 676l143 86v-89l-143 -83l-143 83v89z" />
    <glyph glyph-name="Dcaron" unicode="&#x10e;" horiz-adv-x="709" 
d="M302 695q168 0 268.5 -94.5t100.5 -255.5q0 -160 -100.5 -252.5t-268.5 -92.5h-227v695h227zM189 93h113q122 0 187 66t65 186q0 121 -65 189t-187 68h-113v-509zM355 821l143 86v-89l-143 -83l-143 83v89z" />
    <glyph glyph-name="dcaron" unicode="&#x10f;" horiz-adv-x="781" 
d="M654 740h103q14 -58 14 -100q0 -124 -113 -124v50q49 0 49 56v21h-53v97zM37 278q0 125 74.5 203.5t186.5 78.5q54 0 106.5 -23.5t83.5 -62.5v266h115v-740h-115v83q-28 -40 -77.5 -66t-113.5 -26q-110 0 -185 80.5t-75 206.5zM488 276q0 85 -49.5 135t-117.5 50
t-117.5 -49t-49.5 -134t49.5 -136.5t117.5 -51.5t117.5 50.5t49.5 135.5z" />
    <glyph glyph-name="Dcroat" unicode="&#x110;" horiz-adv-x="720" 
d="M314 695q168 0 268 -94.5t100 -255.5q0 -160 -100 -252.5t-268 -92.5h-228v293h-77v105h77v297h228zM201 87h113q121 0 186 69t65 189q0 121 -65 189.5t-186 68.5h-113v-205h178v-105h-178v-206z" />
    <glyph glyph-name="dcroat" unicode="&#x111;" horiz-adv-x="678" 
d="M37 278q0 125 74.5 203.5t186.5 78.5q54 0 106.5 -23.5t83.5 -62.5v116h-82v66h82v84h115v-84h59v-66h-59v-590h-115v83q-28 -40 -77.5 -66t-113.5 -26q-110 0 -185 80.5t-75 206.5zM488 276q0 85 -49.5 135t-117.5 50t-117.5 -49t-49.5 -134t49.5 -136.5t117.5 -51.5
t117.5 50.5t49.5 135.5z" />
    <glyph glyph-name="Emacron" unicode="&#x112;" horiz-adv-x="524" 
d="M459 696v-93h-270v-204h240v-93h-240v-213h270v-93h-384v696h384zM79 780v85h366v-85h-366z" />
    <glyph glyph-name="emacron" unicode="&#x113;" horiz-adv-x="617" 
d="M307 464q-59 0 -100.5 -37.5t-50.5 -101.5h305q-1 63 -45 101t-109 38zM565 164q-25 -76 -90.5 -124.5t-162.5 -48.5q-120 0 -197.5 78.5t-77.5 206.5q0 129 76 206.5t199 77.5q118 0 193 -75t75 -196q0 -31 -4 -56h-421q6 -67 49.5 -106.5t107.5 -39.5q92 0 130 77h123z
M126 635v85h366v-85h-366z" />
    <glyph glyph-name="Ebreve" unicode="&#x114;" horiz-adv-x="524" 
d="M459 696v-93h-270v-204h240v-93h-240v-213h270v-93h-384v696h384zM413 881q0 -63 -40.5 -101t-110.5 -38t-110 38.5t-40 101.5v21h65q0 -36 19 -54t66 -18t66 18t19 54h66v-22z" />
    <glyph glyph-name="ebreve" unicode="&#x115;" horiz-adv-x="617" 
d="M307 464q-59 0 -100.5 -37.5t-50.5 -101.5h305q-1 63 -45 101t-109 38zM565 164q-25 -76 -90.5 -124.5t-162.5 -48.5q-120 0 -197.5 78.5t-77.5 206.5q0 129 76 206.5t199 77.5q118 0 193 -75t75 -196q0 -31 -4 -56h-421q6 -67 49.5 -106.5t107.5 -39.5q92 0 130 77h123z
M460 736q0 -63 -40.5 -101t-110.5 -38t-110 38.5t-40 101.5v21h65q0 -36 19 -54t66 -18t66 18t19 54h66v-22z" />
    <glyph glyph-name="Edotaccent" unicode="&#x116;" horiz-adv-x="524" 
d="M459 696v-93h-270v-204h240v-93h-240v-213h270v-93h-384v696h384zM262 765q-26 0 -43 17.5t-17 42.5t17.5 42.5t42.5 17.5t42.5 -17.5t17.5 -42.5t-17.5 -42.5t-42.5 -17.5z" />
    <glyph glyph-name="edotaccent" unicode="&#x117;" horiz-adv-x="617" 
d="M307 464q-59 0 -100.5 -37.5t-50.5 -101.5h305q-1 63 -45 101t-109 38zM565 164q-25 -76 -90.5 -124.5t-162.5 -48.5q-120 0 -197.5 78.5t-77.5 206.5q0 129 76 206.5t199 77.5q118 0 193 -75t75 -196q0 -31 -4 -56h-421q6 -67 49.5 -106.5t107.5 -39.5q92 0 130 77h123z
M309 620q-25 0 -42.5 17t-17.5 43q0 25 17.5 42.5t42.5 17.5t42.5 -17.5t17.5 -42.5t-17.5 -42.5t-42.5 -17.5z" />
    <glyph glyph-name="Eogonek" unicode="&#x118;" horiz-adv-x="524" 
d="M459 696v-93h-270v-204h240v-93h-240v-213h270v-93l-49 -25q-57 -29 -57 -66q0 -21 15 -33.5t40 -12.5q30 0 66 14v-73q-38 -15 -81 -15q-54 0 -93.5 26.5t-39.5 81.5q0 58 59 103h-244v696h384z" />
    <glyph glyph-name="eogonek" unicode="&#x119;" horiz-adv-x="617" 
d="M307 464q-59 0 -100.5 -37.5t-50.5 -101.5h305q-1 63 -45 101t-109 38zM433 -182q-38 -15 -81 -15q-54 0 -93.5 26.5t-39.5 81.5q0 47 38 85q-99 18 -159.5 93t-60.5 187q0 129 76 206.5t199 77.5q118 0 193 -75t75 -196q0 -31 -4 -56h-421q6 -67 49.5 -106.5
t107.5 -39.5q92 0 130 77h123q-19 -58 -63 -102t-109 -61l-24 -12q-57 -29 -57 -66q0 -21 15 -33.5t40 -12.5q30 0 66 14v-73z" />
    <glyph glyph-name="Ecaron" unicode="&#x11a;" horiz-adv-x="524" 
d="M459 696v-93h-270v-204h240v-93h-240v-213h270v-93h-384v696h384zM262 821l143 86v-89l-143 -83l-143 83v89z" />
    <glyph glyph-name="ecaron" unicode="&#x11b;" horiz-adv-x="617" 
d="M307 464q-59 0 -100.5 -37.5t-50.5 -101.5h305q-1 63 -45 101t-109 38zM565 164q-25 -76 -90.5 -124.5t-162.5 -48.5q-120 0 -197.5 78.5t-77.5 206.5q0 129 76 206.5t199 77.5q118 0 193 -75t75 -196q0 -31 -4 -56h-421q6 -67 49.5 -106.5t107.5 -39.5q92 0 130 77h123z
M309 676l143 86v-89l-143 -83l-143 83v89z" />
    <glyph glyph-name="Gbreve" unicode="&#x11e;" horiz-adv-x="773" 
d="M392 704q111 0 197.5 -54.5t125.5 -154.5h-137q-56 105 -186 105q-105 0 -171.5 -69t-66.5 -182q0 -114 66.5 -183t171.5 -69q93 0 151 52t71 141h-261v91h383v-89q-16 -125 -112 -211.5t-232 -86.5q-149 0 -252 100t-103 255q0 154 103 254.5t252 100.5zM537 881
q0 -63 -40.5 -101t-110.5 -38t-110 38.5t-40 101.5v21h65q0 -36 19 -54t66 -18t66 18t19 54h66v-22z" />
    <glyph glyph-name="gbreve" unicode="&#x11f;" horiz-adv-x="678" 
d="M37 278q0 125 74.5 203.5t185.5 78.5q64 0 113.5 -25.5t77.5 -63.5v80h115v-560q0 -116 -71.5 -189.5t-197.5 -73.5q-112 0 -186 52.5t-84 142.5h113q13 -43 55.5 -69.5t101.5 -26.5q69 0 111.5 42t42.5 122v92q-29 -39 -78.5 -65.5t-112.5 -26.5q-110 0 -185 80.5
t-75 206.5zM488 276q0 85 -49.5 135t-117.5 50t-117.5 -49t-49.5 -134t49.5 -136.5t117.5 -51.5t117.5 50.5t49.5 135.5zM490 736q0 -63 -40.5 -101t-110.5 -38t-110 38.5t-40 101.5v21h65q0 -36 19 -54t66 -18t66 18t19 54h66v-22z" />
    <glyph glyph-name="Gdotaccent" unicode="&#x120;" horiz-adv-x="773" 
d="M392 704q111 0 197.5 -54.5t125.5 -154.5h-137q-56 105 -186 105q-105 0 -171.5 -69t-66.5 -182q0 -114 66.5 -183t171.5 -69q93 0 151 52t71 141h-261v91h383v-89q-16 -125 -112 -211.5t-232 -86.5q-149 0 -252 100t-103 255q0 154 103 254.5t252 100.5zM386 765
q-26 0 -43 17.5t-17 42.5t17.5 42.5t42.5 17.5t42.5 -17.5t17.5 -42.5t-17.5 -42.5t-42.5 -17.5z" />
    <glyph glyph-name="gdotaccent" unicode="&#x121;" horiz-adv-x="678" 
d="M37 278q0 125 74.5 203.5t185.5 78.5q64 0 113.5 -25.5t77.5 -63.5v80h115v-560q0 -116 -71.5 -189.5t-197.5 -73.5q-112 0 -186 52.5t-84 142.5h113q13 -43 55.5 -69.5t101.5 -26.5q69 0 111.5 42t42.5 122v92q-29 -39 -78.5 -65.5t-112.5 -26.5q-110 0 -185 80.5
t-75 206.5zM488 276q0 85 -49.5 135t-117.5 50t-117.5 -49t-49.5 -134t49.5 -136.5t117.5 -51.5t117.5 50.5t49.5 135.5zM339 620q-25 0 -42.5 17t-17.5 43q0 25 17.5 42.5t42.5 17.5t42.5 -17.5t17.5 -42.5t-17.5 -42.5t-42.5 -17.5z" />
    <glyph glyph-name="uni0122" unicode="&#x122;" horiz-adv-x="773" 
d="M332 -46h103q14 -58 14 -99q0 -125 -113 -125v50q49 0 49 57v21h-53v96zM392 704q111 0 197.5 -54.5t125.5 -154.5h-137q-56 105 -186 105q-105 0 -171.5 -69t-66.5 -182q0 -114 66.5 -183t171.5 -69q93 0 151 52t71 141h-261v91h383v-89q-16 -125 -112 -211.5
t-232 -86.5q-149 0 -252 100t-103 255q0 154 103 254.5t252 100.5z" />
    <glyph glyph-name="uni0123" unicode="&#x123;" horiz-adv-x="678" 
d="M393 597h-103q-13 53 -13 99q0 125 112 125v-50q-48 0 -48 -56v-21h52v-97zM37 278q0 125 74.5 203.5t185.5 78.5q64 0 113.5 -25.5t77.5 -63.5v80h115v-560q0 -116 -71.5 -189.5t-197.5 -73.5q-112 0 -186 52.5t-84 142.5h113q13 -43 55.5 -69.5t101.5 -26.5
q69 0 111.5 42t42.5 122v92q-29 -39 -78.5 -65.5t-112.5 -26.5q-110 0 -185 80.5t-75 206.5zM488 276q0 85 -49.5 135t-117.5 50t-117.5 -49t-49.5 -134t49.5 -136.5t117.5 -51.5t117.5 50.5t49.5 135.5z" />
    <glyph glyph-name="Itilde" unicode="&#x128;" horiz-adv-x="264" 
d="M75 0v695h114v-695h-114zM-31 753q8 58 38 87.5t75 29.5q29 0 63.5 -22t52.5 -22q37 0 43 42h64q-8 -58 -38 -87.5t-75 -29.5q-29 0 -63.5 22.5t-52.5 22.5q-37 0 -43 -43h-64z" />
    <glyph glyph-name="itilde" unicode="&#x129;" horiz-adv-x="264" 
d="M75 0v551h114v-551h-114zM-31 608q8 58 38 87.5t75 29.5q29 0 63.5 -22t52.5 -22q37 0 43 42h64q-8 -58 -38 -87.5t-75 -29.5q-29 0 -63.5 22.5t-52.5 22.5q-37 0 -43 -43h-64z" />
    <glyph glyph-name="Imacron" unicode="&#x12a;" horiz-adv-x="264" 
d="M75 0v695h114v-695h-114zM-51 780v85h366v-85h-366z" />
    <glyph glyph-name="imacron" unicode="&#x12b;" horiz-adv-x="264" 
d="M75 0v551h114v-551h-114zM-51 635v85h366v-85h-366z" />
    <glyph glyph-name="uni012C" unicode="&#x12c;" horiz-adv-x="264" 
d="M75 0v695h114v-695h-114zM283 881q0 -63 -40.5 -101t-110.5 -38t-110 38.5t-40 101.5v21h65q0 -36 19 -54t66 -18t66 18t19 54h66v-22z" />
    <glyph glyph-name="uni012D" unicode="&#x12d;" horiz-adv-x="264" 
d="M75 0v551h114v-551h-114zM283 736q0 -63 -40.5 -101t-110.5 -38t-110 38.5t-40 101.5v21h65q0 -36 19 -54t66 -18t66 18t19 54h66v-22z" />
    <glyph glyph-name="Iogonek" unicode="&#x12e;" horiz-adv-x="264" 
d="M204 -195q-38 -15 -81 -15q-54 0 -93.5 26.5t-39.5 81.5q0 69 85 120v677h114v-695h-2l-47 -24q-57 -29 -57 -66q0 -21 15 -33.5t40 -12.5q30 0 66 14v-73z" />
    <glyph glyph-name="iogonek" unicode="&#x12f;" horiz-adv-x="264" 
d="M204 -195q-38 -15 -81 -15q-54 0 -93.5 26.5t-39.5 81.5q0 69 85 120v533h114v-551h-2l-47 -24q-57 -29 -57 -66q0 -21 15 -33.5t40 -12.5q30 0 66 14v-73zM133 624q-31 0 -52 21t-21 52t21 52t52 21q30 0 51 -21t21 -52t-21 -52t-51 -21z" />
    <glyph glyph-name="Idotaccent" unicode="&#x130;" horiz-adv-x="264" 
d="M75 0v695h114v-695h-114zM132 765q-26 0 -43 17.5t-17 42.5t17.5 42.5t42.5 17.5t42.5 -17.5t17.5 -42.5t-17.5 -42.5t-42.5 -17.5z" />
    <glyph glyph-name="dotlessi" unicode="&#x131;" horiz-adv-x="264" 
d="M75 0v551h114v-551h-114z" />
    <glyph glyph-name="uni0136" unicode="&#x136;" horiz-adv-x="633" 
d="M262 -46h103q14 -52 14 -99q0 -125 -112 -125v50q48 0 48 57v21h-53v96zM458 0l-269 311v-311h-114v695h114v-317l270 317h143l-302 -348l307 -347h-149z" />
    <glyph glyph-name="uni0137" unicode="&#x137;" horiz-adv-x="554" 
d="M223 -46h103q13 -53 13 -99q0 -125 -112 -125v50q49 0 49 57v21h-53v96zM75 0v740h114v-430l200 241h158l-254 -276l254 -275h-154l-204 237v-237h-114z" />
    <glyph glyph-name="Lacute" unicode="&#x139;" horiz-adv-x="444" 
d="M75 695h114v-603h235v-92h-349v695zM104 819l221 122v-97l-221 -109v84z" />
    <glyph glyph-name="lacute" unicode="&#x13a;" horiz-adv-x="264" 
d="M75 0v740h114v-740h-114zM14 863l221 122v-97l-221 -109v84z" />
    <glyph glyph-name="uni013B" unicode="&#x13b;" horiz-adv-x="444" 
d="M193 -46h103q14 -52 14 -99q0 -125 -113 -125v50q49 0 49 57v21h-53v96zM75 695h114v-603h235v-92h-349v695z" />
    <glyph glyph-name="uni013C" unicode="&#x13c;" horiz-adv-x="264" 
d="M78 -46h103q14 -58 14 -99q0 -125 -113 -125v50q49 0 49 57v21h-53v96zM75 0v740h114v-740h-114z" />
    <glyph glyph-name="Lcaron" unicode="&#x13d;" horiz-adv-x="463" 
d="M297 695h103q14 -52 14 -99q0 -125 -112 -125v50q48 0 48 57v21h-53v96zM75 695h114v-603h235v-92h-349v695z" />
    <glyph glyph-name="lcaron" unicode="&#x13e;" horiz-adv-x="427" 
d="M267 740h103q14 -52 14 -100q0 -124 -112 -124v50q48 0 48 56v21h-53v97zM75 0v740h114v-740h-114z" />
    <glyph glyph-name="Ldot" unicode="&#x13f;" horiz-adv-x="444" 
d="M75 695h114v-603h235v-92h-349v695zM222 765q-26 0 -43 17.5t-17 42.5t17.5 42.5t42.5 17.5t42.5 -17.5t17.5 -42.5t-17.5 -42.5t-42.5 -17.5z" />
    <glyph glyph-name="ldot" unicode="&#x140;" horiz-adv-x="264" 
d="M132 765q-26 0 -43 17.5t-17 42.5t17.5 42.5t42.5 17.5t42.5 -17.5t17.5 -42.5t-17.5 -42.5t-42.5 -17.5zM75 0v740h114v-740h-114z" />
    <glyph glyph-name="Lslash" unicode="&#x141;" horiz-adv-x="444" 
d="M86 695h115v-279l92 30v-87l-92 -30v-242h234v-87h-349v292l-77 -25v86l77 25v317z" />
    <glyph glyph-name="lslash" unicode="&#x142;" horiz-adv-x="264" 
d="M75 0v296l-66 -23v88l66 22v357h114v-318l67 23v-87l-67 -23v-335h-114z" />
    <glyph glyph-name="Nacute" unicode="&#x143;" horiz-adv-x="721" 
d="M532 696h114v-696h-114l-343 519v-519h-114v696h114l343 -518v518zM243 819l221 122v-97l-221 -109v84z" />
    <glyph glyph-name="nacute" unicode="&#x144;" horiz-adv-x="649" 
d="M217 674l221 122v-97l-221 -109v84zM466 0v308q0 74 -37 113.5t-101 39.5t-101.5 -39.5t-37.5 -113.5v-308h-114v551h114v-63q59 72 164 72q100 0 163 -61.5t63 -173.5v-325h-113z" />
    <glyph glyph-name="uni0145" unicode="&#x145;" horiz-adv-x="721" 
d="M306 -46h103q14 -52 14 -99q0 -125 -112 -125v50q48 0 48 57v21h-53v96zM532 696h114v-696h-114l-343 519v-519h-114v696h114l343 -518v518z" />
    <glyph glyph-name="uni0146" unicode="&#x146;" horiz-adv-x="649" 
d="M270 -46h103q14 -52 14 -99q0 -125 -112 -125v50q48 0 48 57v21h-53v96zM466 0v308q0 74 -37 113.5t-101 39.5t-101.5 -39.5t-37.5 -113.5v-308h-114v551h114v-63q59 72 164 72q100 0 163 -61.5t63 -173.5v-325h-113z" />
    <glyph glyph-name="Ncaron" unicode="&#x147;" horiz-adv-x="721" 
d="M532 696h114v-696h-114l-343 519v-519h-114v696h114l343 -518v518zM361 821l143 86v-89l-143 -83l-143 83v89z" />
    <glyph glyph-name="ncaron" unicode="&#x148;" horiz-adv-x="649" 
d="M466 0v308q0 74 -37 113.5t-101 39.5t-101.5 -39.5t-37.5 -113.5v-308h-114v551h114v-63q59 72 164 72q100 0 163 -61.5t63 -173.5v-325h-113zM335 676l143 86v-89l-143 -83l-143 83v89z" />
    <glyph glyph-name="Omacron" unicode="&#x14c;" horiz-adv-x="784" 
d="M747 349q0 -155 -102.5 -255.5t-252.5 -100.5q-149 0 -252 100.5t-103 255.5q0 154 103 254.5t252 100.5q150 0 252.5 -100.5t102.5 -254.5zM154 349q0 -116 66.5 -186.5t171.5 -70.5t171.5 70.5t66.5 186.5t-66.5 185.5t-171.5 69.5t-171.5 -69.5t-66.5 -185.5zM209 780
v85h366v-85h-366z" />
    <glyph glyph-name="omacron" unicode="&#x14d;" horiz-adv-x="638" 
d="M600 276q0 -127 -82.5 -206t-203.5 -79q-120 0 -198 78.5t-78 206.5q0 127 80.5 205.5t200.5 78.5t200.5 -78.5t80.5 -205.5zM154 276q0 -89 45.5 -137.5t114.5 -48.5t119 49t50 137q0 89 -48.5 137t-117.5 48t-116 -48t-47 -137zM136 644v85h366v-85h-366z" />
    <glyph glyph-name="uni014E" unicode="&#x14e;" horiz-adv-x="784" 
d="M747 349q0 -155 -102.5 -255.5t-252.5 -100.5q-149 0 -252 100.5t-103 255.5q0 154 103 254.5t252 100.5q150 0 252.5 -100.5t102.5 -254.5zM154 349q0 -116 66.5 -186.5t171.5 -70.5t171.5 70.5t66.5 186.5t-66.5 185.5t-171.5 69.5t-171.5 -69.5t-66.5 -185.5zM543 881
q0 -63 -40.5 -101t-110.5 -38t-110 38.5t-40 101.5v21h65q0 -36 19 -54t66 -18t66 18t19 54h66v-22z" />
    <glyph glyph-name="uni014F" unicode="&#x14f;" horiz-adv-x="638" 
d="M600 276q0 -127 -82.5 -206t-203.5 -79q-120 0 -198 78.5t-78 206.5q0 127 80.5 205.5t200.5 78.5t200.5 -78.5t80.5 -205.5zM154 276q0 -89 45.5 -137.5t114.5 -48.5t119 49t50 137q0 89 -48.5 137t-117.5 48t-116 -48t-47 -137zM470 745q0 -63 -40.5 -101t-110.5 -38
t-110 38.5t-40 101.5v21h65q0 -36 19 -54t66 -18t66 18t19 54h66v-22z" />
    <glyph glyph-name="Ohungarumlaut" unicode="&#x150;" horiz-adv-x="784" 
d="M747 349q0 -155 -102.5 -255.5t-252.5 -100.5q-149 0 -252 100.5t-103 255.5q0 154 103 254.5t252 100.5q150 0 252.5 -100.5t102.5 -254.5zM154 349q0 -116 66.5 -186.5t171.5 -70.5t171.5 70.5t66.5 186.5t-66.5 185.5t-171.5 69.5t-171.5 -69.5t-66.5 -185.5zM333 916
h99l-94 -170h-74zM499 916h99l-100 -170h-74z" />
    <glyph glyph-name="ohungarumlaut" unicode="&#x151;" horiz-adv-x="638" 
d="M600 276q0 -127 -82.5 -206t-203.5 -79q-120 0 -198 78.5t-78 206.5q0 127 80.5 205.5t200.5 78.5t200.5 -78.5t80.5 -205.5zM154 276q0 -89 45.5 -137.5t114.5 -48.5t119 49t50 137q0 89 -48.5 137t-117.5 48t-116 -48t-47 -137zM260 780h99l-94 -170h-74zM426 780h99
l-100 -170h-74z" />
    <glyph glyph-name="OE" unicode="&#x152;" horiz-adv-x="1079" 
d="M1014 606h-270v-211h240v-88h-240v-218h270v-89h-384v111q-87 -118 -247 -118q-143 0 -244.5 101t-101.5 255t101.5 254.5t243.5 100.5q160 0 248 -115v106h384v-89zM392 600q-105 0 -171.5 -69t-66.5 -182q0 -114 66.5 -183.5t171.5 -69.5t171.5 69.5t66.5 183.5
q0 113 -66.5 182t-171.5 69z" />
    <glyph glyph-name="oe" unicode="&#x153;" horiz-adv-x="1062" 
d="M482 276q0 89 -48.5 138.5t-117.5 49.5q-68 0 -115 -49.5t-47 -138.5q0 -90 46 -139.5t114 -49.5q69 0 118.5 50t49.5 139zM752 464q-61 0 -103 -40t-48 -109h305q-1 68 -45 108.5t-109 40.5zM37 276q0 127 81 205.5t201 78.5q68 0 125.5 -30t94.5 -84q73 114 218 114
q118 0 193 -74.5t75 -194.5q0 -29 -4 -54h-421q4 -69 46 -109.5t106 -40.5q93 0 131 77h123q-25 -76 -91 -124.5t-163 -48.5q-142 0 -214 116q-37 -55 -96 -85.5t-128 -30.5q-120 0 -198.5 78.5t-78.5 206.5z" />
    <glyph glyph-name="Racute" unicode="&#x154;" horiz-adv-x="632" 
d="M444 487q0 54 -32 84.5t-97 30.5h-126v-233h126q64 0 96.5 32t32.5 86zM75 695h240q118 0 182 -59t64 -149q0 -68 -39.5 -123.5t-121.5 -75.5l172 -288h-136l-160 278h-87v-278h-114v695zM198 819l221 122v-97l-221 -109v84z" />
    <glyph glyph-name="racute" unicode="&#x155;" horiz-adv-x="384" 
d="M189 290v-290h-114v551h114v-80q52 89 165 89v-118h-29q-67 0 -101.5 -34t-34.5 -118zM123 674l221 122v-97l-221 -109v84z" />
    <glyph glyph-name="uni0156" unicode="&#x156;" horiz-adv-x="632" 
d="M262 -46h103q13 -53 13 -99q0 -125 -112 -125v50q48 0 48 57v21h-52v96zM189 0h-114v695h240q118 0 182 -59t64 -149q0 -68 -39.5 -123.5t-121.5 -75.5l172 -288h-136l-160 278h-87v-278zM444 487q0 54 -32 84.5t-97 30.5h-126v-233h126q64 0 96.5 32t32.5 86z" />
    <glyph glyph-name="uni0157" unicode="&#x157;" horiz-adv-x="384" 
d="M77 -46h103q14 -52 14 -99q0 -125 -112 -125v50q48 0 48 57v21h-53v96zM189 290v-290h-114v551h114v-80q52 89 165 89v-118h-29q-67 0 -101.5 -34t-34.5 -118z" />
    <glyph glyph-name="Rcaron" unicode="&#x158;" horiz-adv-x="632" 
d="M444 487q0 54 -32 84.5t-97 30.5h-126v-233h126q64 0 96.5 32t32.5 86zM75 695h240q118 0 182 -59t64 -149q0 -68 -39.5 -123.5t-121.5 -75.5l172 -288h-136l-160 278h-87v-278h-114v695zM316 821l143 86v-89l-143 -83l-143 83v89z" />
    <glyph glyph-name="rcaron" unicode="&#x159;" horiz-adv-x="384" 
d="M189 290v-290h-114v551h114v-80q52 89 165 89v-118h-29q-67 0 -101.5 -34t-34.5 -118zM241 676l143 86v-89l-143 -83l-143 83v89z" />
    <glyph glyph-name="Sacute" unicode="&#x15a;" horiz-adv-x="604" 
d="M544 197q0 -83 -64.5 -143.5t-175.5 -60.5q-107 0 -176.5 54.5t-69.5 144.5h122q4 -45 35.5 -74t88.5 -29q59 0 92 28.5t33 73.5q0 34 -20.5 56.5t-53 35t-71.5 22t-78.5 23t-72 33t-53 56.5t-20.5 89q0 91 66 144.5t173 53.5q101 0 165.5 -50.5t71.5 -138.5h-126
q-3 37 -34 64t-83 28q-52 2 -84.5 -23.5t-32.5 -73.5q0 -32 20.5 -53.5t53 -33.5t71.5 -22t78 -24t71.5 -34t53 -57t20.5 -89zM181 827l221 122v-97l-221 -109v84z" />
    <glyph glyph-name="sacute" unicode="&#x15b;" horiz-adv-x="534" 
d="M486 154q0 -71 -57.5 -117t-153.5 -46q-98 0 -162 51t-68 127h118q3 -35 33.5 -58.5t76.5 -23.5q48 0 74.5 18.5t26.5 47.5t-33 47t-80 29.5t-94 27.5t-80 52t-33 92q0 68 58.5 113.5t153.5 45.5q94 0 151.5 -47.5t61.5 -129.5h-114q-3 37 -30 59t-73 22q-45 0 -69 -17
t-24 -45q0 -30 32 -48.5t78 -30t92.5 -27.5t79.5 -51.5t35 -90.5zM148 683l221 122v-97l-221 -109v84z" />
    <glyph glyph-name="uni015E" unicode="&#x15e;" horiz-adv-x="604" 
d="M544 197q0 -74 -53 -132t-146 -70v-50q58 0 94 -27.5t36 -77.5t-36 -79.5t-91 -29.5h-132v72h109q28 0 42 8t14 29t-14 29t-42 8h-55v118q-94 8 -153 61t-59 136h122q4 -45 35.5 -74t88.5 -29q59 0 92 28.5t33 73.5q0 34 -20.5 56.5t-53 35t-71.5 22t-78.5 23t-72 33
t-53 56.5t-20.5 89q0 91 66 144.5t173 53.5q101 0 165.5 -50.5t71.5 -138.5h-126q-3 37 -34 64t-83 28q-52 2 -84.5 -23.5t-32.5 -73.5q0 -32 20.5 -53.5t53 -33.5t71.5 -22t78 -24t71.5 -34t53 -57t20.5 -89z" />
    <glyph glyph-name="uni015F" unicode="&#x15f;" horiz-adv-x="534" 
d="M486 154q0 -65 -48 -109.5t-130 -51.5v-41q58 0 94 -27.5t36 -77.5t-36 -79.5t-91 -29.5h-132v72h109q28 0 42 8t14 29t-14 29t-42 8h-55v110q-81 10 -133 59t-55 116h118q3 -35 33.5 -58.5t76.5 -23.5q48 0 74.5 18.5t26.5 47.5t-33 47t-80 29.5t-94 27.5t-80 52t-33 92
q0 68 58.5 113.5t153.5 45.5q94 0 151.5 -47.5t61.5 -129.5h-114q-3 37 -30 59t-73 22q-45 0 -69 -17t-24 -45q0 -30 32 -48.5t78 -30t92.5 -27.5t79.5 -51.5t35 -90.5z" />
    <glyph glyph-name="Scaron" unicode="&#x160;" horiz-adv-x="604" 
d="M544 197q0 -83 -64.5 -143.5t-175.5 -60.5q-107 0 -176.5 54.5t-69.5 144.5h122q4 -45 35.5 -74t88.5 -29q59 0 92 28.5t33 73.5q0 34 -20.5 56.5t-53 35t-71.5 22t-78.5 23t-72 33t-53 56.5t-20.5 89q0 91 66 144.5t173 53.5q101 0 165.5 -50.5t71.5 -138.5h-126
q-3 37 -34 64t-83 28q-52 2 -84.5 -23.5t-32.5 -73.5q0 -32 20.5 -53.5t53 -33.5t71.5 -22t78 -24t71.5 -34t53 -57t20.5 -89zM299 829l143 86v-89l-143 -83l-143 83v89z" />
    <glyph glyph-name="scaron" unicode="&#x161;" horiz-adv-x="534" 
d="M486 154q0 -71 -57.5 -117t-153.5 -46q-98 0 -162 51t-68 127h118q3 -35 33.5 -58.5t76.5 -23.5q48 0 74.5 18.5t26.5 47.5t-33 47t-80 29.5t-94 27.5t-80 52t-33 92q0 68 58.5 113.5t153.5 45.5q94 0 151.5 -47.5t61.5 -129.5h-114q-3 37 -30 59t-73 22q-45 0 -69 -17
t-24 -45q0 -30 32 -48.5t78 -30t92.5 -27.5t79.5 -51.5t35 -90.5zM266 685l143 86v-89l-143 -83l-143 83v89z" />
    <glyph glyph-name="uni0162" unicode="&#x162;" horiz-adv-x="564" 
d="M39 602v93h485v-93h-185v-602h-18v-48q58 0 94 -27.5t36 -77.5t-36 -79.5t-91 -29.5h-132v72h109q28 0 42 8t14 29t-14 29t-42 8h-55v116h-21v602h-186z" />
    <glyph glyph-name="uni0163" unicode="&#x163;" horiz-adv-x="372" 
d="M93 153v305h-65v93h65v137h115v-137h134v-93h-134v-305q0 -31 14.5 -44.5t49.5 -13.5h70v-95h-90q-16 0 -24 1v-49q58 0 94 -27.5t36 -77.5t-36 -79.5t-91 -29.5h-132v72h109q28 0 42 8t14 29t-14 29t-42 8h-55v138q-60 36 -60 131z" />
    <glyph glyph-name="Tcaron" unicode="&#x164;" horiz-adv-x="564" 
d="M39 602v93h485v-93h-185v-602h-114v602h-186zM282 821l143 86v-89l-143 -83l-143 83v89z" />
    <glyph glyph-name="tcaron" unicode="&#x165;" horiz-adv-x="377" 
d="M281 784h103q14 -58 14 -90q0 -104 -113 -104v50q49 0 49 32v15h-53v97zM93 153v305h-65v93h65v137h115v-137h134v-93h-134v-305q0 -31 14.5 -44.5t49.5 -13.5h70v-95h-90q-159 0 -159 153z" />
    <glyph glyph-name="Utilde" unicode="&#x168;" horiz-adv-x="690" 
d="M74 254v441h114v-443q0 -79 41.5 -119t115.5 -40q75 0 116.5 40t41.5 119v443h114v-441q0 -126 -78.5 -193.5t-194.5 -67.5q-117 0 -193.5 67t-76.5 194zM182 753q8 58 38 87.5t75 29.5q29 0 63.5 -22t52.5 -22q37 0 43 42h64q-8 -58 -38 -87.5t-75 -29.5
q-29 0 -63.5 22.5t-52.5 22.5q-37 0 -43 -43h-64z" />
    <glyph glyph-name="utilde" unicode="&#x169;" horiz-adv-x="649" 
d="M460 0v66q-27 -35 -70.5 -54.5t-92.5 -19.5q-100 0 -163.5 61.5t-63.5 173.5v324h113v-307q0 -74 37 -113.5t101 -39.5t101.5 39.5t37.5 113.5v307h114v-551h-114zM162 608q8 58 38 87.5t75 29.5q29 0 63.5 -22t52.5 -22q37 0 43 42h64q-8 -58 -38 -87.5t-75 -29.5
q-29 0 -63.5 22.5t-52.5 22.5q-37 0 -43 -43h-64z" />
    <glyph glyph-name="Umacron" unicode="&#x16a;" horiz-adv-x="690" 
d="M74 254v441h114v-443q0 -79 41.5 -119t115.5 -40q75 0 116.5 40t41.5 119v443h114v-441q0 -126 -78.5 -193.5t-194.5 -67.5q-117 0 -193.5 67t-76.5 194zM162 780v85h366v-85h-366z" />
    <glyph glyph-name="umacron" unicode="&#x16b;" horiz-adv-x="649" 
d="M574 551v-551h-114v66q-27 -35 -70.5 -54.5t-92.5 -19.5q-100 0 -163.5 61.5t-63.5 173.5v324h113v-307q0 -74 37 -113.5t101 -39.5t101.5 39.5t37.5 113.5v307h114zM142 635v85h366v-85h-366z" />
    <glyph glyph-name="Ubreve" unicode="&#x16c;" horiz-adv-x="690" 
d="M74 254v441h114v-443q0 -79 41.5 -119t115.5 -40q75 0 116.5 40t41.5 119v443h114v-441q0 -126 -78.5 -193.5t-194.5 -67.5q-117 0 -193.5 67t-76.5 194zM496 881q0 -63 -40.5 -101t-110.5 -38t-110 38.5t-40 101.5v21h65q0 -36 19 -54t66 -18t66 18t19 54h66v-22z" />
    <glyph glyph-name="ubreve" unicode="&#x16d;" horiz-adv-x="649" 
d="M574 551v-551h-114v66q-27 -35 -70.5 -54.5t-92.5 -19.5q-100 0 -163.5 61.5t-63.5 173.5v324h113v-307q0 -74 37 -113.5t101 -39.5t101.5 39.5t37.5 113.5v307h114zM476 736q0 -63 -40.5 -101t-110.5 -38t-110 38.5t-40 101.5v21h65q0 -36 19 -54t66 -18t66 18t19 54h66
v-22z" />
    <glyph glyph-name="Uring" unicode="&#x16e;" horiz-adv-x="690" 
d="M74 254v441h114v-443q0 -79 41.5 -119t115.5 -40q75 0 116.5 40t41.5 119v443h114v-441q0 -126 -78.5 -193.5t-194.5 -67.5q-117 0 -193.5 67t-76.5 194zM345 969q48 0 80.5 -30t32.5 -80q0 -49 -32.5 -79t-80.5 -30q-47 0 -79.5 30t-32.5 79q0 50 32.5 80t79.5 30z
M345 809q21 0 35 14.5t14 36.5q0 23 -14 37t-35 14q-20 0 -34 -14t-14 -37q0 -22 14 -36.5t34 -14.5z" />
    <glyph glyph-name="uring" unicode="&#x16f;" horiz-adv-x="649" 
d="M574 551v-551h-114v66q-27 -35 -70.5 -54.5t-92.5 -19.5q-100 0 -163.5 61.5t-63.5 173.5v324h113v-307q0 -74 37 -113.5t101 -39.5t101.5 39.5t37.5 113.5v307h114zM325 664q21 0 35 14.5t14 36.5q0 23 -14 37t-35 14q-20 0 -34 -14t-14 -37q0 -22 14 -36.5t34 -14.5z
M325 824q48 0 80.5 -30t32.5 -80q0 -49 -32.5 -79t-80.5 -30q-47 0 -79.5 30t-32.5 79q0 50 32.5 80t79.5 30z" />
    <glyph glyph-name="Uhungarumlaut" unicode="&#x170;" horiz-adv-x="690" 
d="M74 254v441h114v-443q0 -79 41.5 -119t115.5 -40q75 0 116.5 40t41.5 119v443h114v-441q0 -126 -78.5 -193.5t-194.5 -67.5q-117 0 -193.5 67t-76.5 194zM286 916h99l-94 -170h-74zM452 916h99l-100 -170h-74z" />
    <glyph glyph-name="uhungarumlaut" unicode="&#x171;" horiz-adv-x="649" 
d="M574 551v-551h-114v66q-27 -35 -70.5 -54.5t-92.5 -19.5q-100 0 -163.5 61.5t-63.5 173.5v324h113v-307q0 -74 37 -113.5t101 -39.5t101.5 39.5t37.5 113.5v307h114zM266 771h99l-94 -170h-74zM432 771h99l-100 -170h-74z" />
    <glyph glyph-name="Uogonek" unicode="&#x172;" horiz-adv-x="690" 
d="M74 254v441h114v-443q0 -79 41.5 -119t115.5 -40q75 0 116.5 40t41.5 119v443h114v-441q0 -105 -55 -169.5t-144 -83.5v-1l-49 -25q-57 -29 -57 -66q0 -21 15 -33.5t40 -12.5q30 0 66 14v-73q-38 -15 -81 -15q-54 0 -93.5 26.5t-39.5 81.5q0 58 58 102q-91 18 -147 83
t-56 172z" />
    <glyph glyph-name="uogonek" unicode="&#x173;" horiz-adv-x="649" 
d="M574 551v-551h-1l1 -1l-49 -25q-57 -29 -57 -66q0 -21 15 -33.5t40 -12.5q30 0 66 14v-73q-38 -15 -81 -15q-54 0 -93.5 26.5t-39.5 81.5q0 69 85 120v50q-27 -35 -70.5 -54.5t-92.5 -19.5q-100 0 -163.5 61.5t-63.5 173.5v324h113v-307q0 -74 37 -113.5t101 -39.5
t101.5 39.5t37.5 113.5v307h114z" />
    <glyph glyph-name="Wcircumflex" unicode="&#x174;" horiz-adv-x="999" 
d="M216 -1l-197 696h121l144 -566l156 566h128l145 -563l145 563h122l-206 -695h-129l-146 526l-155 -526zM638 829v-89l-143 86l-143 -86v89l143 83z" />
    <glyph glyph-name="wcircumflex" unicode="&#x175;" horiz-adv-x="825" 
d="M182 0l-172 551h116l115 -443l117 443h119l112 -441l114 441h112l-171 -551h-120l-111 407l-111 -407h-120zM556 679v-89l-143 86l-143 -86v89l143 83z" />
    <glyph glyph-name="Ycircumflex" unicode="&#x176;" horiz-adv-x="605" 
d="M246 252l-231 443h127l161 -341l161 341h126l-230 -443v-252h-114v252zM446 824v-89l-143 86l-143 -86v89l143 83z" />
    <glyph glyph-name="ycircumflex" unicode="&#x177;" horiz-adv-x="582" 
d="M292 131l161 420h118l-338 -810h-118l112 268l-217 542h127zM434 679v-89l-143 86l-143 -86v89l143 83z" />
    <glyph glyph-name="Ydieresis" unicode="&#x178;" horiz-adv-x="605" 
d="M246 252l-231 443h127l161 -341l161 341h126l-230 -443v-252h-114v252zM217 765q-25 0 -42.5 17.5t-17.5 42.5t17.5 42.5t42.5 17.5t42.5 -17.5t17.5 -42.5t-17.5 -42.5t-42.5 -17.5zM389 765q-25 0 -42.5 17.5t-17.5 42.5t17.5 42.5t42.5 17.5t42.5 -17.5t17.5 -42.5
t-17.5 -42.5t-42.5 -17.5z" />
    <glyph glyph-name="Zacute" unicode="&#x179;" horiz-adv-x="558" 
d="M508 695v-89l-323 -507h323v-99h-458v89l322 507h-322v99h458zM161 819l221 122v-97l-221 -109v84z" />
    <glyph glyph-name="zacute" unicode="&#x17a;" horiz-adv-x="471" 
d="M426 551v-93l-250 -365h250v-93h-382v93l251 365h-251v93h382zM118 674l221 122v-97l-221 -109v84z" />
    <glyph glyph-name="Zdotaccent" unicode="&#x17b;" horiz-adv-x="558" 
d="M508 695v-89l-323 -507h323v-99h-458v89l322 507h-322v99h458zM279 765q-25 0 -42.5 17.5t-17.5 42.5t17.5 42.5t42.5 17.5t42.5 -17.5t17.5 -42.5t-17.5 -42.5t-42.5 -17.5z" />
    <glyph glyph-name="zdotaccent" unicode="&#x17c;" horiz-adv-x="471" 
d="M426 551v-93l-250 -365h250v-93h-382v93l251 365h-251v93h382zM236 620q-26 0 -43 17t-17 43q0 25 17.5 42.5t42.5 17.5t42.5 -17.5t17.5 -42.5t-17.5 -42.5t-42.5 -17.5z" />
    <glyph glyph-name="Zcaron" unicode="&#x17d;" horiz-adv-x="558" 
d="M508 695v-89l-323 -507h323v-99h-458v89l322 507h-322v99h458zM279 821l143 86v-89l-143 -83l-143 83v89z" />
    <glyph glyph-name="zcaron" unicode="&#x17e;" horiz-adv-x="471" 
d="M426 551v-93l-250 -365h250v-93h-382v93l251 365h-251v93h382zM236 676l143 86v-89l-143 -83l-143 83v89z" />
    <glyph glyph-name="uni018F" unicode="&#x18f;" horiz-adv-x="784" 
d="M393 96q86 0 144 50.5t65 137.5h-421q3 -85 61.5 -136.5t150.5 -51.5zM393 -7q-149 0 -240 87.5t-91 242.5q0 36 4 68h536q-6 94 -63.5 151.5t-146.5 57.5q-68 0 -117 -30t-73 -85h-132q37 102 121 160.5t201 58.5q149 0 242 -99t93 -256q0 -158 -92 -257t-242 -99z" />
    <glyph glyph-name="florin" unicode="&#x192;" horiz-adv-x="332" 
d="M91 590q10 95 65 138.5t163 43.5l-10 -95q-52 0 -75 -19.5t-28 -67.5l-4 -39h101l-9 -93h-102l-56 -522q-8 -82 -50.5 -117.5t-119.5 -35.5h-22l10 94h16q24 0 36.5 14t15.5 45l55 522h-65l9 93h66z" />
    <glyph glyph-name="uni01FC" unicode="&#x1fc;" horiz-adv-x="921" 
d="M440 821l221 122v-97l-221 -109v84zM472 617l-210 -386h210v386zM855 607h-269v-211h239v-88h-239v-219h269v-89h-383v142h-259l-77 -142h-124l383 696h460v-89z" />
    <glyph glyph-name="uni01FD" unicode="&#x1fd;" horiz-adv-x="1088" 
d="M770 464q-62 0 -108.5 -40t-56.5 -105h325q-1 65 -46.5 105t-113.5 40zM1033 164q-25 -76 -88.5 -124.5t-155.5 -48.5q-60 0 -113 25.5t-86 66.5v-83h-98v83q-76 -92 -195 -92q-110 0 -185 80.5t-75 206.5t75.5 204t190.5 78q120 0 192 -87v78h95v-78q79 87 199 87
q114 0 186.5 -75.5t72.5 -193.5q0 -29 -4 -54h-439q8 -70 56.5 -110t107.5 -40q108 0 140 77h124zM154 278q0 -85 49.5 -136.5t117.5 -51.5t117.5 50.5t49.5 135.5t-49.5 135t-117.5 50t-117.5 -49t-49.5 -134zM490 674l221 122v-97l-221 -109v84z" />
    <glyph glyph-name="uni0218" unicode="&#x218;" horiz-adv-x="604" 
d="M248 -46h103q14 -52 14 -99q0 -125 -113 -125v50q49 0 49 57v21h-53v96zM544 197q0 -83 -64.5 -143.5t-175.5 -60.5q-107 0 -176.5 54.5t-69.5 144.5h122q4 -45 35.5 -74t88.5 -29q59 0 92 28.5t33 73.5q0 34 -20.5 56.5t-53 35t-71.5 22t-78.5 23t-72 33t-53 56.5
t-20.5 89q0 91 66 144.5t173 53.5q101 0 165.5 -50.5t71.5 -138.5h-126q-3 37 -34 64t-83 28q-52 2 -84.5 -23.5t-32.5 -73.5q0 -32 20.5 -53.5t53 -33.5t71.5 -22t78 -24t71.5 -34t53 -57t20.5 -89z" />
    <glyph glyph-name="uni0219" unicode="&#x219;" horiz-adv-x="534" 
d="M213 -46h103q14 -58 14 -99q0 -125 -113 -125v50q49 0 49 57v21h-53v96zM486 154q0 -71 -57.5 -117t-153.5 -46q-98 0 -162 51t-68 127h118q3 -35 33.5 -58.5t76.5 -23.5q48 0 74.5 18.5t26.5 47.5t-33 47t-80 29.5t-94 27.5t-80 52t-33 92q0 68 58.5 113.5t153.5 45.5
q94 0 151.5 -47.5t61.5 -129.5h-114q-3 37 -30 59t-73 22q-45 0 -69 -17t-24 -45q0 -30 32 -48.5t78 -30t92.5 -27.5t79.5 -51.5t35 -90.5z" />
    <glyph glyph-name="uni021A" unicode="&#x21a;" horiz-adv-x="564" 
d="M228 -46h103q13 -53 13 -99q0 -125 -112 -125v50q49 0 49 57v21h-53v96zM39 602v93h485v-93h-185v-602h-114v602h-186z" />
    <glyph glyph-name="uni021B" unicode="&#x21b;" horiz-adv-x="372" 
d="M132 -46h103q14 -52 14 -99q0 -125 -113 -125v50q49 0 49 57v21h-53v96zM93 153v305h-65v93h65v137h115v-137h134v-93h-134v-305q0 -31 14.5 -44.5t49.5 -13.5h70v-95h-90q-159 0 -159 153z" />
    <glyph glyph-name="uni0259" unicode="&#x259;" horiz-adv-x="617" 
d="M310 87q59 0 100.5 37.5t50.5 101.5h-305q1 -63 45 -101t109 -38zM305 -9q-118 0 -193 75t-75 196q0 31 4 56h421q-6 67 -49.5 106.5t-107.5 39.5q-92 0 -130 -77h-123q25 76 90.5 124.5t162.5 48.5q120 0 197.5 -78.5t77.5 -206.5q0 -129 -76 -206.5t-199 -77.5z" />
    <glyph glyph-name="uni02BC" unicode="&#x2bc;" horiz-adv-x="242" 
d="M112 457h-80l61 238h124z" />
    <glyph glyph-name="circumflex" unicode="&#x2c6;" horiz-adv-x="306" 
d="M296 679v-89l-143 86l-143 -86v89l143 83z" />
    <glyph glyph-name="caron" unicode="&#x2c7;" horiz-adv-x="306" 
d="M153 676l143 86v-89l-143 -83l-143 83v89z" />
    <glyph glyph-name="uni02C9" unicode="&#x2c9;" horiz-adv-x="386" 
d="M10 635v85h366v-85h-366z" />
    <glyph glyph-name="breve" unicode="&#x2d8;" horiz-adv-x="321" 
d="M311 736q0 -63 -40.5 -101t-110.5 -38t-110 38.5t-40 101.5v21h65q0 -36 19 -54t66 -18t66 18t19 54h66v-22z" />
    <glyph glyph-name="dotaccent" unicode="&#x2d9;" horiz-adv-x="140" 
d="M70 620q-26 0 -43 17t-17 43q0 25 17.5 42.5t42.5 17.5t42.5 -17.5t17.5 -42.5t-17.5 -42.5t-42.5 -17.5z" />
    <glyph glyph-name="ring" unicode="&#x2da;" horiz-adv-x="238" 
d="M119 824q48 0 80.5 -30t32.5 -80q0 -49 -32.5 -79t-80.5 -30q-47 0 -79.5 30t-32.5 79q0 50 32.5 80t79.5 30zM119 664q21 0 35 14.5t14 36.5q0 23 -14 37t-35 14q-20 0 -34 -14t-14 -37q0 -22 14 -36.5t34 -14.5z" />
    <glyph glyph-name="ogonek" unicode="&#x2db;" horiz-adv-x="234" 
d="M137 39l42 19l30 -58l-49 -25q-57 -29 -57 -66q0 -21 15 -33.5t40 -12.5q30 0 66 14v-73q-38 -15 -81 -15q-54 0 -93.5 26.5t-39.5 81.5q0 84 127 142z" />
    <glyph glyph-name="tilde" unicode="&#x2dc;" horiz-adv-x="356" 
d="M10 608q8 58 38 87.5t75 29.5q29 0 63.5 -22t52.5 -22q37 0 43 42h64q-8 -58 -38 -87.5t-75 -29.5q-29 0 -63.5 22.5t-52.5 22.5q-37 0 -43 -43h-64z" />
    <glyph glyph-name="hungarumlaut" unicode="&#x2dd;" horiz-adv-x="365" 
d="M79 771h99l-94 -170h-74zM245 771h99l-100 -170h-74z" />
    <glyph glyph-name="pi" unicode="&#x3c0;" horiz-adv-x="706" 
d="M31 462v89h639v-89h-77v-462h-113v462h-259v-462h-114v462h-76z" />
    <glyph glyph-name="dvCandrabindu" unicode="&#x901;" horiz-adv-x="0" 
d="M-156 816q-103 0 -158.5 52t-55.5 134h85q0 -45 33.5 -77.5t95.5 -32.5t95.5 32.5t33.5 77.5h85q0 -82 -55.5 -134t-158.5 -52zM-156 983q-20 0 -33.5 13.5t-13.5 33.5t13.5 33.5t33.5 13.5t33.5 -13.5t13.5 -33.5t-13.5 -33.5t-33.5 -13.5z" />
    <glyph glyph-name="dvAnusvara" unicode="&#x902;" horiz-adv-x="0" 
d="M-151 829q-28 0 -47.5 19t-19.5 47t19.5 47t47.5 19t47 -19t19 -47t-19 -47t-47 -19z" />
    <glyph glyph-name="dvVisarga" unicode="&#x903;" horiz-adv-x="246" 
d="M123 419q-28 0 -47.5 19t-19.5 47t19.5 47t47.5 19t47.5 -19t19.5 -47t-19.5 -47t-47.5 -19zM123 119q-28 0 -47.5 19t-19.5 47t19.5 47t47.5 19t47.5 -19t19.5 -47t-19.5 -47t-47.5 -19z" />
    <glyph glyph-name="dvA" unicode="&#x905;" horiz-adv-x="831" 
d="M278 456q55 0 85.5 29.5t30.5 70.5q0 47 -30.5 75.5t-76.5 28.5q-48 0 -80.5 -27.5t-32.5 -73.5h-97q0 86 58.5 138t151.5 52q90 0 145.5 -49t55.5 -130q0 -57 -30 -97.5t-87 -55.5v-2q28 -6 52 -20h205v345h226v-88h-122v-652h-104v308l-138 1q10 -29 10 -61
q0 -87 -56 -140t-148 -53q-101 0 -163.5 57t-62.5 148h98q0 -50 33.5 -82.5t87.5 -32.5q53 0 84 31t31 82q0 29 -11 51h-2v4q-32 58 -113 58h-41v85h41z" />
    <glyph glyph-name="dvAA" unicode="&#x906;" horiz-adv-x="1126" 
d="M278 456q55 0 85.5 29.5t30.5 70.5q0 47 -30.5 75.5t-76.5 28.5q-48 0 -80.5 -27.5t-32.5 -73.5h-97q0 86 58.5 138t151.5 52q90 0 145.5 -49t55.5 -130q0 -57 -30 -97.5t-87 -55.5v-2q28 -6 52 -20h205v345h528v-88h-122v-652h-105v652h-197v-652h-104v308l-138 1
q10 -29 10 -61q0 -87 -56 -140t-148 -53q-101 0 -163.5 57t-62.5 148h98q0 -50 33.5 -82.5t87.5 -32.5q53 0 84 31t31 82q0 29 -11 51h-2v4q-32 58 -113 58h-41v85h41z" />
    <glyph glyph-name="dvI" unicode="&#x907;" horiz-adv-x="580" 
d="M-32 652v88h644v-88h-146v-182h-179q-106 0 -106 -73q0 -71 95 -71h44q41 0 76 -9t65 -28t47.5 -54t17.5 -83q0 -73 -47 -120t-131 -47q-63 0 -102.5 26t-55.5 55v-145h-99v256h94q5 -51 40 -82t94 -31q52 0 79.5 26t27.5 65q0 96 -125 96h-56q-71 3 -120 39t-49 108
q0 76 52 112t131 36h106v106h-397z" />
    <glyph glyph-name="dvII" unicode="&#x908;" horiz-adv-x="580" 
d="M190 66v-145h-99v256h94q5 -51 40 -82t94 -31q52 0 79.5 26t27.5 65q0 96 -125 96h-56q-71 3 -120 39t-49 108q0 76 52 112t131 36h106v106h-397v88h398v71q0 89 42.5 144.5t133.5 55.5q83 0 128 -49t42 -130h-92q2 41 -19 66t-57 25q-80 0 -80 -111v-72h148v-88h-146
v-182h-179q-106 0 -106 -73q0 -71 95 -71h44q41 0 76 -9t65 -28t47.5 -54t17.5 -83q0 -73 -47 -120t-131 -47q-63 0 -102.5 26t-55.5 55z" />
    <glyph glyph-name="dvU" unicode="&#x909;" horiz-adv-x="572" 
d="M-24 652v88h620v-88h-112v-91q0 -61 -29 -101.5t-76 -49.5v-2q61 -14 97.5 -66.5t36.5 -122.5q0 -96 -59.5 -156t-162.5 -60q-107 0 -175 63t-68 164h100q0 -57 39.5 -95t98.5 -38q58 0 93 36t35 94q0 54 -34 93.5t-101 39.5h-50v92h36q57 0 87.5 31t30.5 84v85h-407z
" />
    <glyph glyph-name="dvUU" unicode="&#x90a;" horiz-adv-x="861" 
d="M-24 652v88h908v-88h-400v-91q0 -61 -29 -101.5t-76 -49.5v-2h199q105 0 168.5 -48.5t63.5 -148.5q0 -90 -53 -138t-140 -48q-16 0 -50 4v80q11 -1 33 -1q49 0 79 26t30 81q0 56 -36 82.5t-94 26.5h-95q28 -48 28 -110q0 -93 -59.5 -152t-161.5 -59q-107 0 -175 63
t-68 164h100q0 -57 39.5 -95t98.5 -38q58 0 93 36t35 94q0 54 -34 93.5t-101 39.5h-50v92h36q57 0 87.5 31t30.5 84v85h-407z" />
    <glyph glyph-name="dvvR" unicode="&#x90b;" horiz-adv-x="1030" 
d="M492 0v244l-248 -244h-132v6l380 345q-12 52 -52 84t-98 32q-76 0 -122 -47.5t-46 -126.5h-105q0 118 66.5 190.5t176.5 72.5q120 0 180 -89v185h-516v88h1078v-88h-465v-210h169q78 0 78 69v52h91v-353h-21q-51 0 -79 -26.5t-28 -68.5q0 -48 30.5 -70.5t79.5 -22.5
q27 0 57 8v-84q-36 -8 -71 -8q-87 0 -142 43.5t-55 124.5q0 64 37 107t101 57v108q-42 -20 -93 -20h-154v-358h-97z" />
    <glyph glyph-name="dvvL" unicode="&#x90c;" horiz-adv-x="902" 
d="M-24 652v88h949v-88h-238v-117q69 -18 109.5 -77t40.5 -150q0 -56 -16 -100h-7q-59 0 -89 -26.5t-30 -69.5q0 -47 31 -69.5t80 -22.5q32 0 58 8v-84q-34 -8 -70 -8q-89 0 -144.5 44t-55.5 127q0 60 38 103.5t97 54.5q4 19 4 44q0 61 -30 100t-85 39q-60 0 -90.5 -44.5
t-30.5 -119.5v-21h-88v21q0 74 -29 119t-87 45t-90 -39t-32 -102q0 -73 38 -114t106 -41q8 0 28 2v-92q-13 -1 -34 -1q-117 0 -180.5 67.5t-63.5 179.5q0 109 60 171t154 62q70 0 112.5 -39t59.5 -98h3q32 108 131 132v116h-609z" />
    <glyph glyph-name="dvEcandra" unicode="&#x90d;" horiz-adv-x="652" 
d="M-24 652v88h700v-88h-105v-105q0 -115 -50 -166t-165 -38v94q60 -6 86.5 21t26.5 92v102h-268v-383q0 -76 36 -118t103 -42q62 0 97 36.5t35 101.5h103q0 -107 -62.5 -167.5t-170.5 -60.5q-121 0 -183 68t-62 185l-1 380h-120zM328 832q-106 0 -160 52.5t-54 133.5h91
q0 -45 31 -76t92 -31t92.5 31t31.5 76h90q0 -80 -54.5 -133t-159.5 -53z" />
    <glyph glyph-name="dvE" unicode="&#x90f;" horiz-adv-x="652" 
d="M-24 652v88h700v-88h-105v-105q0 -115 -50 -166t-165 -38v94q60 -6 86.5 21t26.5 92v102h-268v-383q0 -76 36 -118t103 -42q62 0 97 36.5t35 101.5h103q0 -107 -62.5 -167.5t-170.5 -60.5q-121 0 -183 68t-62 185l-1 380h-120z" />
    <glyph glyph-name="dvAI" unicode="&#x910;" horiz-adv-x="652" 
d="M342 19q-121 0 -183 68t-62 185l-1 380h-120v88h489q-68 107 -107 134t-112 27h-45v86h43q58 0 91.5 -7t71.5 -32.5t73.5 -73.5t84.5 -134h111v-88h-105v-105q0 -115 -50 -166t-165 -38v94q60 -6 86.5 21t26.5 92v102h-268v-383q0 -76 36 -118t103 -42q62 0 97 36.5
t35 101.5h103q0 -107 -62.5 -167.5t-170.5 -60.5z" />
    <glyph glyph-name="dvOcandra" unicode="&#x911;" horiz-adv-x="1132" 
d="M278 456q55 0 85.5 29.5t30.5 70.5q0 47 -30.5 75.5t-76.5 28.5q-48 0 -80.5 -27.5t-32.5 -73.5h-97q0 86 58.5 138t151.5 52q90 0 145.5 -49t55.5 -130q0 -57 -30 -97.5t-87 -55.5v-2q28 -6 52 -20h205v345h528v-88h-122v-652h-105v652h-197v-652h-104v308l-138 1
q10 -29 10 -61q0 -87 -56 -140t-148 -53q-101 0 -163.5 57t-62.5 148h98q0 -50 33.5 -82.5t87.5 -32.5q53 0 84 31t31 82q0 29 -11 51h-2v4q-32 58 -113 58h-41v85h41zM833 832q-106 0 -160 52.5t-54 133.5h91q0 -45 31 -76t92 -31t92.5 31t31.5 76h90q0 -80 -54.5 -133
t-159.5 -53z" />
    <glyph glyph-name="dvO" unicode="&#x913;" horiz-adv-x="1132" 
d="M732 0h-104v308l-138 1q10 -29 10 -61q0 -87 -56 -140t-148 -53q-101 0 -163.5 57t-62.5 148h98q0 -50 33.5 -82.5t87.5 -32.5q53 0 84 31t31 82q0 29 -11 51h-2v4q-32 58 -113 58h-41v85h41q55 0 85.5 29.5t30.5 70.5q0 47 -30.5 75.5t-76.5 28.5q-48 0 -80.5 -27.5
t-32.5 -73.5h-97q0 86 58.5 138t151.5 52q90 0 145.5 -49t55.5 -130q0 -57 -30 -97.5t-87 -55.5v-2q28 -6 52 -20h205v345h300q-68 107 -107 134t-112 27h-45v86h43q58 0 91.5 -7t71.5 -32.5t73.5 -73.5t84.5 -134h128v-88h-122v-652h-105v652h-197v-652z" />
    <glyph glyph-name="dvAU" unicode="&#x914;" horiz-adv-x="1132" 
d="M732 0h-104v308l-138 1q10 -29 10 -61q0 -87 -56 -140t-148 -53q-101 0 -163.5 57t-62.5 148h98q0 -50 33.5 -82.5t87.5 -32.5q53 0 84 31t31 82q0 29 -11 51h-2v4q-32 58 -113 58h-41v85h41q55 0 85.5 29.5t30.5 70.5q0 47 -30.5 75.5t-76.5 28.5q-48 0 -80.5 -27.5
t-32.5 -73.5h-97q0 86 58.5 138t151.5 52q90 0 145.5 -49t55.5 -130q0 -57 -30 -97.5t-87 -55.5v-2q28 -6 52 -20h205v345h307q-83 61 -118 74t-116 13h-46v67h44q79 0 116.5 -11.5t102.5 -63.5q-32 58 -58 92t-53 49t-47 18.5t-57 3.5h-48v68h46q59 0 88.5 -6t68 -38
t74.5 -92t95 -174h129v-88h-122v-652h-105v652h-197v-652z" />
    <glyph glyph-name="dvKA" unicode="&#x915;" horiz-adv-x="986" 
d="M449 0v183q-50 -95 -173 -95q-95 0 -153 64t-58 169q0 104 59.5 167t155.5 63q119 0 169 -92v193h-473v88h1033v-88h-459v-195q48 94 164 94q92 0 149.5 -64t57.5 -164q0 -106 -58 -167.5t-150 -61.5q-36 0 -64 7v83q15 -4 37 -4q56 0 92.5 37.5t36.5 103.5
q0 62 -37.5 101t-94.5 39q-66 0 -99.5 -44t-33.5 -105v-312h-101zM310 176q66 0 102.5 43.5t36.5 99.5q0 57 -36 99.5t-103 42.5q-59 0 -99 -38.5t-40 -102.5q0 -66 39 -105t100 -39z" />
    <glyph glyph-name="dvKHA" unicode="&#x916;" horiz-adv-x="941" 
d="M619 210q58 0 89 37.5t31 86.5q0 50 -30.5 87t-89.5 37q-52 0 -87.5 -33t-35.5 -89q0 -59 35 -92.5t88 -33.5zM598 129q-18 0 -36 3q-31 -61 -89 -98.5t-136 -37.5q-119 0 -189 68t-70 189v147h33q67 0 103.5 32.5t36.5 111.5v108h-275v88h989v-88h-122v-652h-104v200
q-45 -71 -141 -71zM340 87q95 0 140 79q-78 57 -78 170q0 90 55.5 146.5t140.5 56.5q96 0 141 -71v184h-383v-121q0 -103 -47.5 -153t-126.5 -54v-83q0 -69 42 -111.5t116 -42.5z" />
    <glyph glyph-name="dvGA" unicode="&#x917;" horiz-adv-x="766" 
d="M563 0v652h-163v-257q0 -83 -43.5 -135t-132.5 -52q-87 0 -133.5 48.5t-46.5 132.5q0 21 1 31h102v-31q0 -39 17.5 -65t56.5 -26q74 0 74 93v261h-319v88h813v-88h-122v-652h-104z" />
    <glyph glyph-name="dvGHA" unicode="&#x918;" horiz-adv-x="707" 
d="M323 188q77 0 129 48t52 123v293h-306v-63q0 -109 123 -109h45v-85h-53q-65 0 -97 -27.5t-32 -72.5q0 -52 38.5 -79.5t100.5 -27.5zM-24 652v88h755v-88h-121v-652h-106v205q-31 -49 -84.5 -76t-120.5 -27q-98 0 -159.5 47.5t-61.5 135.5q0 60 36 99.5t89 50.5v2
q-110 22 -110 147v68h-117z" />
    <glyph glyph-name="dvNGA" unicode="&#x919;" horiz-adv-x="672" 
d="M594 326q-25 0 -43 17.5t-18 42.5q0 26 17.5 43.5t43.5 17.5t43.5 -17.5t17.5 -43.5q0 -25 -18 -42.5t-43 -17.5zM-24 652v88h720v-88h-227v-182h-179q-105 0 -105 -72t93 -72h45q87 0 146 -41t59 -130q0 -78 -56 -124.5t-159 -46.5q-111 0 -178.5 52.5t-69.5 140.5h104
q1 -51 38 -82t103 -31q57 0 88 25.5t31 66.5q0 95 -125 95h-39q-75 0 -130 34.5t-55 115.5q0 74 52 109t129 35h106v107h-391z" />
    <glyph glyph-name="dvCA" unicode="&#x91a;" horiz-adv-x="740" 
d="M-24 652v88h788v-88h-122v-652h-105v191q-61 -96 -187 -96q-90 0 -150 53t-60 144q0 98 76 148h-166v83h365v-83h-37q-62 0 -100.5 -36.5t-38.5 -94.5q0 -59 40.5 -93t100.5 -34q70 1 113.5 50t43.5 123v297h-561z" />
    <glyph glyph-name="dvCHA" unicode="&#x91b;" horiz-adv-x="819" 
d="M-24 652v88h867v-88h-210v-110q64 -15 102.5 -68t38.5 -137q0 -144 -101.5 -228t-273.5 -84q-150 0 -239.5 56.5t-89.5 163.5q0 65 36 107t94 55v3q-49 9 -79 45t-30 102v95h-115zM400 115q128 0 204.5 60t76.5 166q0 60 -28.5 94t-68.5 34q-38 0 -65.5 -26.5
t-27.5 -78.5q0 -40 16 -88h-87q-17 46 -17 99q0 72 36.5 113.5t96.5 53.5v110h-341v-91q0 -109 117 -109h21v-85h-19q-69 0 -103.5 -31.5t-34.5 -80.5q0 -68 58.5 -104t165.5 -36z" />
    <glyph glyph-name="dvJA" unicode="&#x91c;" horiz-adv-x="846" 
d="M-24 652v88h894v-88h-122v-652h-105v406h-168v-76q0 -93 -55 -150.5t-149 -57.5q-96 0 -149.5 57t-53.5 151v166h106v-164q0 -54 26 -86t72 -32q47 0 74 32t27 86v164h270v156h-667z" />
    <glyph glyph-name="dvJHA" unicode="&#x91d;" horiz-adv-x="855" 
d="M276 326h378v326h-188v-182h-179q-106 0 -106 -73q0 -71 95 -71zM654 0v246l-168 1q37 -42 37 -105q0 -67 -44 -109t-126 -42q-106 0 -158 73v-143h-99v250h94q6 -45 40 -73.5t92 -28.5q51 0 77.5 24.5t26.5 61.5q0 45 -32 70.5t-93 25.5h-56q-71 3 -120 39t-49 108
q0 76 52 112t131 36h106v106h-389v88h903v-88h-122v-652h-103z" />
    <glyph glyph-name="dvNYA" unicode="&#x91e;" horiz-adv-x="817" 
d="M-24 652v88h865v-88h-122v-652h-105v276h-98q-12 -89 -71.5 -143t-155.5 -54t-155.5 51t-68.5 129h99q11 -39 43.5 -65t82.5 -26q64 0 99 42.5t35 105.5q0 62 -35 104.5t-99 42.5q-51 0 -83.5 -26.5t-42.5 -64.5h-99q9 79 68 129.5t156 50.5q93 0 152.5 -51.5
t73.5 -135.5h99v287h-638z" />
    <glyph glyph-name="dvTTA" unicode="&#x91f;" horiz-adv-x="649" 
d="M-24 652v88h697v-88h-201v-193h-112q-84 0 -137 -43.5t-53 -126.5q0 -71 47 -116.5t121 -45.5q76 0 123 47.5t47 122.5h100q0 -117 -73.5 -189t-194.5 -72t-198 70t-77 183q0 122 78.5 190.5t210.5 68.5h15v104h-393z" />
    <glyph glyph-name="dvTTHA" unicode="&#x920;" horiz-adv-x="674" 
d="M337 130q75 0 122 46.5t47 118.5t-47 117.5t-122 45.5q-74 0 -121 -45.5t-47 -117.5t47.5 -118.5t120.5 -46.5zM337 42q-118 0 -195 69.5t-77 183.5q0 101 61.5 166.5t157.5 81.5v109h-308v88h722v-88h-310v-109q97 -15 159.5 -80.5t62.5 -167.5q0 -114 -77.5 -183.5
t-195.5 -69.5z" />
    <glyph glyph-name="dvDDA" unicode="&#x921;" horiz-adv-x="572" 
d="M-24 652v88h619v-88h-131v-182h-174q-105 0 -105 -72t93 -72h45q87 0 146 -41t59 -130q0 -78 -56 -124.5t-159 -46.5q-111 0 -178.5 52.5t-69.5 140.5h104q1 -51 38 -82t103 -31q57 0 88 25.5t31 66.5q0 95 -125 95h-39q-75 0 -130 34.5t-55 115.5q0 74 52 109t129 35
h102v107h-387z" />
    <glyph glyph-name="dvDDHA" unicode="&#x922;" horiz-adv-x="645" 
d="M-24 652v88h693v-88h-178v-173h-101q-100 0 -162 -52t-62 -150q0 -87 56 -142t152 -55q68 0 112 33t44 88q0 39 -24.5 64t-62.5 25q-33 0 -56 -21t-23 -55q0 -12 3 -19h-77q-3 16 -3 33q0 64 45 101t115 37q79 0 126 -45.5t47 -119.5q0 -91 -66.5 -144.5t-181.5 -53.5
q-134 0 -220.5 75.5t-86.5 201.5q0 131 81.5 202t211.5 71h34v99h-416z" />
    <glyph glyph-name="dvNNA" unicode="&#x923;" horiz-adv-x="867" 
d="M288 261q45 0 70.5 29.5t25.5 77.5v284h-193v-284q0 -48 26.5 -77.5t70.5 -29.5zM-24 652v88h915v-88h-122v-652h-105v652h-177v-274q0 -92 -52 -149t-148 -57q-95 0 -147 57.5t-52 148.5v274h-112z" />
    <glyph glyph-name="dvTA" unicode="&#x924;" horiz-adv-x="698" 
d="M-24 652v88h746v-88h-122v-652h-105v406h-140q-86 0 -135 -41t-49 -119q0 -76 43.5 -118.5t125.5 -42.5h21v-83h-36q-118 0 -189 62.5t-71 183.5q0 124 78 186t207 62h145v156h-519z" />
    <glyph glyph-name="dvTHA" unicode="&#x925;" horiz-adv-x="774" 
d="M571 0v217q-23 -51 -81 -87t-143 -36q-127 0 -201 74.5t-74 201.5q0 31 4 58h95q200 0 200 133q0 42 -25.5 70t-68.5 28q-45 0 -71.5 -27.5t-26.5 -74.5q0 -15 4 -41h-95q-4 28 -4 44q0 88 54.5 138.5t139.5 50.5q86 0 138.5 -53t52.5 -138q0 -100 -69.5 -153t-189.5 -53
h-37q2 -77 50 -123.5t139 -46.5q89 0 149 56t60 152v350h227v-88h-122v-652h-105z" />
    <glyph glyph-name="dvDA" unicode="&#x926;" horiz-adv-x="610" 
d="M-24 652v88h658l-1 -88h-135v-191h-157q-74 0 -121.5 -39t-47.5 -109q0 -64 38 -102t102 -38q51 0 89 32t38 91h97v-317h-103v179q-47 -69 -150 -69q-96 0 -157 60t-61 167q0 113 74.5 174t191.5 61h62v101h-417z" />
    <glyph glyph-name="dvDHA" unicode="&#x927;" horiz-adv-x="718" 
d="M303 92q-96 0 -158 46t-62 130q0 61 36 99t84 46v3q-54 13 -90.5 55t-36.5 110q0 75 49 121.5t127 46.5q79 0 124.5 -45t45.5 -117q0 -13 -2 -35h-79q1 12 1 23q0 37 -23 61.5t-64 24.5t-65 -26t-24 -65q0 -53 40 -82t105 -29h58v-85h-54q-60 0 -92.5 -25.5t-32.5 -69.5
q0 -49 38 -74.5t100 -25.5q84 0 138.5 54.5t54.5 140.5v366h225v-88h-120v-652h-105v203q-31 -52 -87.5 -81.5t-130.5 -29.5z" />
    <glyph glyph-name="dvNA" unicode="&#x928;" horiz-adv-x="799" 
d="M270 192q50 0 81.5 31t31.5 80q0 48 -32 79.5t-81 31.5q-51 0 -83.5 -31.5t-32.5 -80.5t32 -79.5t84 -30.5zM-24 652v88h847v-88h-122v-652h-105v414h-174q45 -52 45 -125q0 -86 -56.5 -136t-142.5 -50q-89 0 -149 54.5t-60 144.5q0 94 61.5 147t156.5 53h319v150h-620z
" />
    <glyph glyph-name="dvPA" unicode="&#x92a;" horiz-adv-x="661" 
d="M323 275q64 0 100 41.5t36 102.5v233h-274v-215q0 -76 34 -119t104 -43zM-24 652v88h709v-88h-122v-652h-104v262q-52 -76 -162 -76q-106 0 -161.5 68t-55.5 183v215h-104z" />
    <glyph glyph-name="dvPHA" unicode="&#x92b;" horiz-adv-x="985" 
d="M313 275q60 0 93.5 40t33.5 99v238h-255v-220q0 -74 32 -115.5t96 -41.5zM-24 652v88h1033v-88h-464v-195q23 43 66.5 68.5t103.5 25.5q91 0 148.5 -63t57.5 -162q0 -108 -58 -170t-150 -62q-37 0 -67 8v82q20 -5 41 -5q56 0 92 38.5t36 103.5q0 62 -37 101t-95 39
q-68 0 -103 -46.5t-35 -113.5v-301h-105v260q-50 -74 -152 -74q-101 0 -154.5 66.5t-53.5 179.5v220h-104z" />
    <glyph glyph-name="dvBA" unicode="&#x92c;" horiz-adv-x="689" 
d="M490 0v175q-25 -42 -72 -67.5t-110 -25.5q-104 0 -173.5 66.5t-69.5 173.5t68.5 173t172.5 66q121 0 184 -93v184h-514v88h736v-88h-121v-652h-101zM327 491q-67 0 -113 -40l257 -216q24 41 24 89q0 67 -44.5 117t-123.5 50zM328 158q69 0 113 41l-259 216
q-25 -39 -25 -93q0 -75 49.5 -119.5t121.5 -44.5z" />
    <glyph glyph-name="dvBHA" unicode="&#x92d;" horiz-adv-x="812" 
d="M264 178q45 0 69.5 31.5t24.5 87.5v74h-82q-49 0 -78.5 -26t-29.5 -71q0 -44 27 -70t69 -26zM265 89q-88 0 -141.5 51t-53.5 134q0 87 57 135t146 48h85v89q0 113 -81 113q-36 0 -58.5 -25t-22.5 -68q0 -19 4 -36h-105q-4 24 -4 40q0 81 48 130t134 49q183 0 183 -221
v-71h152v283h228v-88h-123v-652h-105v371h-152v-69q0 -102 -49.5 -157.5t-141.5 -55.5z" />
    <glyph glyph-name="dvMA" unicode="&#x92e;" horiz-adv-x="803" 
d="M239 178q45 0 70 31.5t25 87.5v74h-83q-48 0 -78 -26t-30 -71q0 -44 27 -70t69 -26zM599 457v195h-167v-195h167zM-24 652v88h850v-88h-122v-652h-105v371h-167v-69q0 -102 -49.5 -157.5t-142.5 -55.5q-88 0 -141 51t-53 134q0 87 56.5 135t145.5 48h86v195h-358z" />
    <glyph glyph-name="dvYA" unicode="&#x92f;" horiz-adv-x="743" 
d="M353 191q81 0 134 50.5t53 129.5v281h-185v-80q0 -182 -187 -193v-4q0 -84 49 -134t136 -50zM-24 652v88h791v-88h-122v-652h-105v200q-66 -97 -209 -97q-127 0 -196.5 76t-69.5 206q0 25 3 51h13q86 0 128 36.5t42 117.5v62h-275z" />
    <glyph glyph-name="dvRA" unicode="&#x930;" horiz-adv-x="534" 
d="M-24 652v88h582v-88h-110v-83q0 -242 -230 -242h-38v-125q0 -55 25 -88t74 -33q45 0 71.5 30.5t26.5 81.5v22h101v-19q0 -94 -52.5 -149.5t-144.5 -55.5q-99 0 -151.5 59.5t-52.5 156.5v206h104q163 0 163 156v83h-368z" />
    <glyph glyph-name="dvRxA" unicode="&#x931;" horiz-adv-x="534" 
d="M-24 652v88h582v-88h-110v-83q0 -242 -230 -242h-38v-125q0 -55 25 -88t74 -33q45 0 71.5 30.5t26.5 81.5v22h101v-19q0 -94 -52.5 -149.5t-144.5 -55.5q-99 0 -151.5 59.5t-52.5 156.5v206h104q163 0 163 156v83h-368zM113 -175q-28 0 -47 18.5t-19 46.5t19 47.5
t47 19.5q29 0 48 -19.5t19 -47.5t-19 -46.5t-48 -18.5z" />
    <glyph glyph-name="dvLA" unicode="&#x932;" horiz-adv-x="907" 
d="M598 57q-8 0 -34 2v92q20 -2 28 -2q68 0 106 42t38 112q0 63 -31 102.5t-87 39.5q-60 0 -90.5 -44.5t-30.5 -119.5v-18h-88v18q0 74 -29 119t-87 45t-90 -39t-32 -103q0 -70 38 -112t106 -42q8 0 28 2v-92q-26 -2 -34 -2q-116 0 -180 69t-64 179q0 109 60 170.5t154 61.5
q71 0 113.5 -38.5t59.5 -96.5h3q35 114 141 132v118h-620v88h954v-88h-231v-124q66 -20 104.5 -78t38.5 -145q0 -110 -64 -179t-180 -69z" />
    <glyph glyph-name="dvLLA" unicode="&#x933;" horiz-adv-x="987" 
d="M305 173q61 0 99 38t38 99q0 62 -38 101t-99 39t-99.5 -39t-38.5 -102q0 -61 39 -98.5t99 -37.5zM681 173q61 0 99.5 37.5t38.5 98.5q0 63 -38.5 102t-98.5 39q-61 0 -99 -39t-38 -101q0 -61 37.5 -99t98.5 -38zM696 83q-73 0 -126 36.5t-75 96.5h-4q-21 -60 -74 -96.5
t-126 -36.5q-97 0 -161.5 63t-64.5 164q0 103 64.5 166.5t160.5 63.5q142 0 202 -131h3q49 112 164 128v115h-683v88h1034v-88h-249v-120q72 -20 116.5 -79t44.5 -143q0 -101 -64.5 -164t-161.5 -63z" />
    <glyph glyph-name="dvVA" unicode="&#x935;" horiz-adv-x="672" 
d="M319 170q73 0 113 45.5t40 103.5v1q0 60 -39.5 105t-113.5 45q-65 0 -108 -41t-43 -108q0 -69 42.5 -110t108.5 -41zM696 652h-122v-652h-102v181q-55 -95 -180 -95q-102 0 -164.5 65.5t-62.5 172.5q0 102 63 166.5t164 64.5q125 0 180 -94v191h-496v88h720v-88z" />
    <glyph glyph-name="dvSHA" unicode="&#x936;" horiz-adv-x="826" 
d="M304 -8q-105 0 -163 61.5t-58 165.5v180h144q82 0 134.5 35t52.5 107q0 54 -29 85.5t-79 31.5t-79 -31.5t-29 -85.5q0 -13 2 -41h-104q-4 30 -4 44q0 92 58 148.5t156 56.5q97 0 155.5 -56.5t58.5 -158.5q0 -109 -71.5 -166.5t-184.5 -57.5h-75v-98q0 -58 27.5 -93.5
t84.5 -35.5q50 0 78 32.5t28 85.5v14h102v-15q0 -97 -55 -152.5t-150 -55.5zM622 0v740h228v-88h-122v-652h-106z" />
    <glyph glyph-name="dvSSA" unicode="&#x937;" horiz-adv-x="670" 
d="M324 268q51 0 86 24.5t49 65.5l-278 215v-139q0 -78 36 -122t107 -44zM469 431v221h-286zM-24 652v88h718v-88h-122v-652h-103v258q-52 -79 -166 -79q-108 0 -165.5 70t-57.5 188v215h-104z" />
    <glyph glyph-name="dvSA" unicode="&#x938;" horiz-adv-x="822" 
d="M431 568q0 -89 -48 -147h236v231h-188v-84zM-24 652v88h870v-88h-123v-652h-104v335h-439v-132q0 -55 25.5 -88.5t75.5 -33.5q47 0 73.5 30.5t26.5 81.5v12h101q1 -7 1 -17q0 -91 -53.5 -144t-146.5 -53q-99 0 -152.5 60t-53.5 157v203h87q82 0 122.5 42t40.5 115v84
h-351z" />
    <glyph glyph-name="dvHA" unicode="&#x939;" horiz-adv-x="586" 
d="M532 66q-10 -74 -70.5 -123t-155.5 -49q-110 0 -173 62.5t-63 161.5q0 125 102 184q-78 39 -78 120q0 61 44 94t118 33h116v103h-396v88h633v-88h-137v-179h-180q-94 0 -94 -71q0 -51 56 -71q28 5 54 5q100 0 156.5 -48.5t67.5 -122.5h-100q-9 35 -41.5 61t-84.5 26
q-61 0 -97 -38.5t-36 -97.5q0 -60 35.5 -97.5t97.5 -37.5q50 0 83 25t43 60h100z" />
    <glyph glyph-name="dvNukta" unicode="&#x93c;" horiz-adv-x="0" 
d="M-337 -181q-28 0 -47 18.5t-19 46.5t19 47.5t47 19.5q29 0 48 -19.5t19 -47.5t-19 -46.5t-48 -18.5z" />
    <glyph glyph-name="dvAvagraha" unicode="&#x93d;" horiz-adv-x="582" 
d="M70 57v89h234q36 0 55.5 15.5t19.5 40.5q0 27 -25.5 57t-62 59t-73.5 61.5t-62.5 75.5t-25.5 90q0 64 43 95.5t113 31.5h210v-89h-185q-74 0 -74 -53q0 -28 25.5 -58.5t62 -59.5t73 -61t62 -75t25.5 -89q0 -58 -41 -94t-114 -36h-260z" />
    <glyph glyph-name="dvmAA" unicode="&#x93e;" 
d="M98 0v652h-122v88h349v-88h-122v-652h-105z" />
    <glyph glyph-name="dvmI" unicode="&#x93f;" 
d="M203 652v-652h-105v652h-122v88h122q4 130 114 198t280 68q110 0 198 -30.5t142 -93.5t54 -149v-17h-105v15q0 66 -45.5 110t-108 61.5t-135.5 17.5q-54 0 -101.5 -8.5t-91 -28t-69.5 -56t-28 -87.5h123v-88h-122z" />
    <glyph glyph-name="dvmII" unicode="&#x940;" 
d="M-203 716v60q0 105 49 167.5t155 62.5q202 0 202 -230v-36h122v-88h-122v-652h-105v652h-122v88h125v41q0 137 -100 137q-102 0 -102 -137v-65h-102z" />
    <glyph glyph-name="dvmU" unicode="&#x941;" horiz-adv-x="0" 
d="M-201 -311q-104 0 -172.5 53.5t-65.5 162.5h93q-3 -67 36.5 -100.5t105.5 -33.5q55 0 86.5 25t31.5 70q0 36 -24 60.5t-66 24.5h-27v82h27q86 0 132.5 -46t46.5 -122q0 -82 -54.5 -129t-149.5 -47z" />
    <glyph glyph-name="dvmUU" unicode="&#x942;" horiz-adv-x="0" 
d="M-180 -301q-75 0 -124 42t-49 119q0 78 55 124t144 46q126 0 188 -79t62 -206q0 -27 -1 -40h-86v47q0 95 -43.5 147t-119.5 52q-51 0 -82.5 -24.5t-31.5 -67.5q0 -39 27 -61.5t67 -22.5q8 0 32 2v-77q-13 -1 -38 -1z" />
    <glyph glyph-name="dvmvR" unicode="&#x943;" horiz-adv-x="0" 
d="M-137 -318q-83 0 -141 43t-58 132q0 78 52.5 126t144.5 48q33 0 41 -1v-72h-33q-49 0 -76.5 -27.5t-27.5 -69.5q0 -49 32 -71.5t82 -22.5q41 0 76 11v-82q-40 -14 -92 -14z" />
    <glyph glyph-name="dvmvRR" unicode="&#x944;" horiz-adv-x="0" 
d="M-133 -457q-78 0 -130.5 34t-52.5 104q0 46 26 76.5t68 39.5v3q-93 21 -93 110q0 62 44.5 91.5t104.5 29.5h68v-59h-29q-88 0 -88 -67q0 -34 25.5 -50t65.5 -16h50v-78h-47q-94 0 -94 -69q0 -67 98 -67q55 0 98 15v-79q-47 -18 -114 -18z" />
    <glyph glyph-name="dvmEcandra" unicode="&#x945;" horiz-adv-x="0" 
d="M-156 816q-106 0 -160 52.5t-54 133.5h91q0 -45 31 -76t92 -31t92.5 31t31.5 76h90q0 -80 -54.5 -133t-159.5 -53z" />
    <glyph glyph-name="dvmE" unicode="&#x947;" horiz-adv-x="0" 
d="M-198 736q-70 110 -109 137.5t-113 27.5h-45v86h43q58 0 91.5 -7t72 -33t74 -75t85.5 -136h-99z" />
    <glyph glyph-name="dvmAI" unicode="&#x948;" horiz-adv-x="0" 
d="M-189 737q-86 64 -121.5 77t-116.5 13h-46v67h44q79 0 116.5 -11.5t102.5 -63.5q-32 58 -58 92t-53 49t-47 18.5t-57 3.5h-48v68h46q40 0 62 -2t49.5 -12.5t46.5 -29t46.5 -55t55.5 -87t68 -127.5h-90z" />
    <glyph glyph-name="dvmOcandra" unicode="&#x949;" horiz-adv-x="302" 
d="M98 0v652h-122v88h349v-88h-122v-652h-105zM151 816q-106 0 -160 52.5t-54 133.5h91q0 -45 31 -76t92 -31t92.5 31t31.5 76h90q0 -80 -54.5 -133t-159.5 -53z" />
    <glyph glyph-name="dvmO" unicode="&#x94b;" horiz-adv-x="302" 
d="M203 0h-105v652h-122v88h125q-68 107 -107 134t-112 27h-45v86h43q58 0 91.5 -7t71.5 -32.5t73.5 -73.5t84.5 -134h124v-88h-122v-652z" />
    <glyph glyph-name="dvmAU" unicode="&#x94c;" 
d="M203 0h-105v652h-122v88h129q-83 61 -118 74t-116 13h-46v67h44q79 0 116.5 -11.5t102.5 -63.5q-32 58 -58 92t-53 49t-47 18.5t-57 3.5h-48v68h46q59 0 88.5 -6t68 -38t74.5 -92t95 -174h128v-88h-122v-652z" />
    <glyph glyph-name="dvVirama" unicode="&#x94d;" horiz-adv-x="0" 
d="M-76 -265l-124 206h105l127 -206h-108z" />
    <glyph glyph-name="dvOm" unicode="&#x950;" horiz-adv-x="1061" 
d="M301 12q-101 0 -163 56.5t-62 148.5h99q0 -50 33.5 -82.5t86.5 -32.5t84.5 32.5t31.5 85.5q0 47 -31.5 81.5t-95.5 34.5h-41v89h41q56 0 86.5 30.5t30.5 74.5q0 50 -31.5 79.5t-77.5 29.5q-48 0 -79.5 -27.5t-31.5 -73.5h-98q0 86 58.5 138t151.5 52q91 0 147.5 -50.5
t56.5 -133.5q0 -60 -30.5 -102t-87.5 -57v-3q24 -6 34 -11h59q56 0 83 24.5t27 86.5q0 98 45.5 150.5t149.5 52.5q107 0 154.5 -62.5t47.5 -184.5v-132q0 -284 -259 -284q-39 0 -99 10v88q48 -8 81 -8q97 0 136 49t39 148v142q0 71 -23 108t-77 37q-97 0 -97 -115
q0 -104 -44 -148t-144 -44q16 -35 16 -79q0 -90 -57 -144t-150 -54zM572 739q-104 0 -159 51.5t-55 134.5h84q0 -45 34 -77.5t96 -32.5q61 0 95 32.5t34 77.5h85q0 -83 -55.5 -134.5t-158.5 -51.5zM572 906q-20 0 -33.5 13.5t-13.5 33.5t13.5 34t33.5 14t33.5 -14t13.5 -34
t-13.5 -33.5t-33.5 -13.5z" />
    <glyph glyph-name="dvKxA" unicode="&#x958;" horiz-adv-x="986" 
d="M449 0v183q-50 -95 -173 -95q-95 0 -153 64t-58 169q0 104 59.5 167t155.5 63q119 0 169 -92v193h-473v88h1033v-88h-459v-195q48 94 164 94q92 0 149.5 -64t57.5 -164q0 -106 -58 -167.5t-150 -61.5q-36 0 -64 7v83q15 -4 37 -4q56 0 92.5 37.5t36.5 103.5
q0 62 -37.5 101t-94.5 39q-66 0 -99.5 -44t-33.5 -105v-312h-101zM260 -118q-28 0 -47 18.5t-19 46.5t19 47.5t47 19.5t47.5 -19t19.5 -48q0 -28 -19 -46.5t-48 -18.5zM310 176q66 0 102.5 43.5t36.5 99.5q0 57 -36 99.5t-103 42.5q-59 0 -99 -38.5t-40 -102.5
q0 -66 39 -105t100 -39z" />
    <glyph glyph-name="dvKHxA" unicode="&#x959;" horiz-adv-x="941" 
d="M598 129q-18 0 -36 3q-31 -61 -89 -98.5t-136 -37.5q-119 0 -189 68t-70 189v147h33q67 0 103.5 32.5t36.5 111.5v108h-275v88h989v-88h-122v-652h-104v200q-45 -71 -141 -71zM318 -207q-28 0 -47 18.5t-19 46.5t19 47.5t47 19.5t47.5 -19.5t19.5 -47.5t-19 -46.5
t-48 -18.5zM619 210q58 0 89 37.5t31 86.5q0 50 -30.5 87t-89.5 37q-52 0 -87.5 -33t-35.5 -89q0 -59 35 -92.5t88 -33.5zM340 87q95 0 140 79q-78 57 -78 170q0 90 55.5 146.5t140.5 56.5q96 0 141 -71v184h-383v-121q0 -103 -47.5 -153t-126.5 -54v-83q0 -69 42 -111.5
t116 -42.5z" />
    <glyph glyph-name="dvGxA" unicode="&#x95a;" horiz-adv-x="765" 
d="M563 0v652h-163v-257q0 -83 -43.5 -135t-132.5 -52q-87 0 -133.5 48.5t-46.5 132.5q0 21 1 31h102v-31q0 -39 17.5 -65t56.5 -26q74 0 74 93v261h-319v88h813v-88h-122v-652h-104zM227 -1q-28 0 -47 18.5t-19 46.5t19 47.5t47 19.5q29 0 48 -19.5t19 -47.5t-19 -46.5
t-48 -18.5z" />
    <glyph glyph-name="dvJxA" unicode="&#x95b;" horiz-adv-x="846" 
d="M-24 652v88h894v-88h-122v-652h-105v406h-168v-76q0 -93 -55 -150.5t-149 -57.5q-96 0 -149.5 57t-53.5 151v166h106v-164q0 -54 26 -86t72 -32q47 0 74 32t27 86v164h270v156h-667zM274 -83q-28 0 -47 18.5t-19 46.5t19 47.5t47 19.5t47.5 -19.5t19.5 -47.5t-19 -46.5
t-48 -18.5z" />
    <glyph glyph-name="dvDDxA" unicode="&#x95c;" horiz-adv-x="572" 
d="M-24 652v88h619v-88h-131v-182h-174q-105 0 -105 -72t93 -72h45q87 0 146 -41t59 -130q0 -78 -56 -124.5t-159 -46.5q-111 0 -178.5 52.5t-69.5 140.5h104q1 -51 38 -82t103 -31q57 0 88 25.5t31 66.5q0 95 -125 95h-39q-75 0 -130 34.5t-55 115.5q0 74 52 109t129 35
h102v107h-387zM309 -221q-28 0 -47 18.5t-19 46.5t19 47.5t47 19.5q29 0 48 -19.5t19 -47.5t-19 -46.5t-48 -18.5z" />
    <glyph glyph-name="dvDDHxA" unicode="&#x95d;" horiz-adv-x="645" 
d="M-24 652v88h693v-88h-178v-173h-101q-100 0 -162 -52t-62 -150q0 -87 56 -142t152 -55q68 0 112 33t44 88q0 39 -24.5 64t-62.5 25q-33 0 -56 -21t-23 -55q0 -12 3 -19h-77q-3 16 -3 33q0 64 45 101t115 37q79 0 126 -45.5t47 -119.5q0 -91 -66.5 -144.5t-181.5 -53.5
q-134 0 -220.5 75.5t-86.5 201.5q0 131 81.5 202t211.5 71h34v99h-416zM349 -201q-28 0 -47 18.5t-19 46.5t19 47.5t47 19.5q29 0 48 -19.5t19 -47.5t-19 -46.5t-48 -18.5z" />
    <glyph glyph-name="dvPHxA" unicode="&#x95e;" horiz-adv-x="985" 
d="M313 275q60 0 93.5 40t33.5 99v238h-255v-220q0 -74 32 -115.5t96 -41.5zM-24 652v88h1033v-88h-464v-195q23 43 66.5 68.5t103.5 25.5q91 0 148.5 -63t57.5 -162q0 -108 -58 -170t-150 -62q-37 0 -67 8v82q20 -5 41 -5q56 0 92 38.5t36 103.5q0 62 -37 101t-95 39
q-68 0 -103 -46.5t-35 -113.5v-301h-105v260q-50 -74 -152 -74q-101 0 -154.5 66.5t-53.5 179.5v220h-104zM250 -15q-28 0 -47 18.5t-19 46.5t19 47.5t47 19.5t47.5 -19.5t19.5 -47.5t-19 -46.5t-48 -18.5z" />
    <glyph glyph-name="dvvRR" unicode="&#x960;" horiz-adv-x="996" 
d="M492 0v244l-248 -244h-132v6l380 345q-12 52 -52 84t-98 32q-76 0 -122 -47.5t-46 -126.5h-105q0 118 66.5 190.5t176.5 72.5q120 0 180 -89v185h-516v88h1079v-88h-466v-210h169q78 0 78 69v52h91v-355h-39q-87 0 -87 -67q0 -65 91 -65h50v-79h-48q-94 0 -94 -69
q0 -67 98 -67q51 0 99 16v-79q-47 -19 -114 -19q-77 0 -130 34.5t-53 104.5q0 45 26 75.5t67 39.5v3q-42 10 -67.5 37.5t-25.5 72.5q0 59 40 88.5t96 32.5v111q-42 -20 -93 -20h-154v-358h-97z" />
    <glyph glyph-name="dvvLL" unicode="&#x961;" horiz-adv-x="911" 
d="M-24 652v88h955v-88h-244v-117q69 -18 109.5 -77t40.5 -150q0 -56 -16 -100h-35q-87 0 -87 -67q0 -65 91 -65h50v-79h-48q-94 0 -94 -69q0 -67 98 -67q54 0 99 16v-79q-47 -19 -114 -19q-77 0 -130 34.5t-53 105.5q0 44 26 74.5t67 39.5v3q-42 10 -67.5 37.5t-25.5 72.5
q0 57 38 86.5t93 33.5q4 19 4 43q0 61 -30 100t-85 39q-60 0 -90.5 -44.5t-30.5 -119.5v-21h-88v21q0 74 -29 119t-87 45t-90 -39t-32 -102q0 -73 38 -114t106 -41q8 0 28 2v-92q-13 -1 -34 -1q-117 0 -180.5 67.5t-63.5 179.5q0 109 60 171t154 62q70 0 112.5 -39t59.5 -98
h3q32 108 131 132v116h-609z" />
    <glyph glyph-name="dvmvL" unicode="&#x962;" horiz-adv-x="0" 
d="M103 -467q-67 0 -109 33t-42 94q0 45 27.5 77t71.5 41q2 9 2 28q0 45 -20.5 72.5t-60.5 27.5q-42 0 -63.5 -32t-21.5 -85v-15h-69v15q0 53 -21 85t-62 32q-42 0 -64.5 -27.5t-22.5 -73.5q0 -51 27 -80t75 -29q15 0 21 2v-72q-9 -1 -25 -1q-86 0 -133.5 49.5t-47.5 131.5
q0 81 44.5 127t113.5 46q52 0 83 -28.5t44 -70.5h2q13 42 46 70.5t87 28.5q66 0 109 -46.5t43 -126.5q0 -37 -11 -73h-6q-44 0 -66.5 -19t-22.5 -49q0 -33 23.5 -49.5t57.5 -16.5q26 0 43 6v-67q-25 -5 -52 -5z" />
    <glyph glyph-name="dvmvLL" unicode="&#x963;" horiz-adv-x="0" 
d="M177 -570q-33 -12 -84 -12q-58 0 -96.5 25t-38.5 77q0 34 19 56.5t49 28.5v2q-68 16 -68 83q0 42 27 64.5t67 25.5q1 9 1 26q0 45 -20.5 72.5t-60.5 27.5q-42 0 -63.5 -32t-21.5 -85v-15h-69v15q0 53 -21 85t-62 32q-42 0 -64.5 -27.5t-22.5 -73.5q0 -51 27 -80t75 -29
q15 0 21 2v-72q-9 -1 -25 -1q-86 0 -133.5 49.5t-47.5 131.5q0 81 44.5 127t113.5 46q52 0 83 -28.5t44 -70.5h2q13 42 46 70.5t87 28.5q66 0 109 -46.5t43 -126.5q0 -37 -11 -73h-28q-62 0 -62 -47t66 -47h35v-62h-33q-69 0 -69 -49q0 -47 70 -47q39 0 72 11v-62z" />
    <glyph glyph-name="danda" unicode="&#x964;" horiz-adv-x="300" 
d="M258 741v-741h-104v741h104z" />
    <glyph glyph-name="doubledanda" unicode="&#x965;" horiz-adv-x="529" 
d="M258 741v-741h-104v741h104zM486 741v-741h-104v741h104z" />
    <glyph glyph-name="dvZero" unicode="&#x966;" horiz-adv-x="641" 
d="M60 374q0 83 12.5 146t41 115t80.5 79.5t126 27.5t126 -27.5t80.5 -79.5t41 -115t12.5 -146q0 -84 -12.5 -148.5t-41 -116.5t-80.5 -79.5t-126 -27.5t-126 27.5t-80.5 79.5t-41 116.5t-12.5 148.5zM468 374q0 59 -5 100t-19 81.5t-45 61.5t-79 21t-79 -21t-45 -61.5
t-19 -81.5t-5 -100q0 -49 2.5 -83.5t11.5 -72t24.5 -60t43 -37.5t66.5 -15t66.5 15t43 37.5t24.5 60t11.5 72t2.5 83.5z" />
    <glyph glyph-name="dvOne" unicode="&#x967;" horiz-adv-x="350" 
d="M138 0v625h-93v104h208v-729h-115z" />
    <glyph glyph-name="dvTwo" unicode="&#x968;" horiz-adv-x="577" 
d="M51 10v83q24 21 72.5 62.5t73.5 64t64 58.5t59.5 61.5t42.5 57.5t31.5 62t9.5 60q0 128 -118 128q-59 0 -91.5 -37.5t-34.5 -100.5h-110q3 114 68.5 174.5t166.5 60.5q109 0 170.5 -60t61.5 -160q0 -37 -9.5 -72.5t-30 -70.5t-39.5 -61.5t-53 -61t-54 -53.5t-59 -53.5
t-52 -46.5h317v-95h-486z" />
    <glyph glyph-name="dvThree" unicode="&#x969;" horiz-adv-x="594" 
d="M58 549q6 93 71.5 145t167.5 52q105 0 164.5 -53.5t59.5 -136.5q0 -62 -33 -106t-79 -59v-4q59 -18 92 -65.5t33 -121.5q0 -90 -61.5 -147t-172.5 -57q-108 0 -177.5 55.5t-74.5 159.5h110q4 -53 41 -86.5t100 -33.5q61 0 94 33.5t33 86.5q0 70 -44.5 99.5t-136.5 29.5
h-26v94h27q166 2 166 109q0 48 -31 76.5t-88 28.5q-56 0 -87 -28.5t-37 -70.5h-111z" />
    <glyph glyph-name="dvFour" unicode="&#x96a;" horiz-adv-x="647" 
d="M408 0v152h-362v86l336 482h138v-469h93v-99h-93v-152h-112zM177 251h236v353z" />
    <glyph glyph-name="dvFive" unicode="&#x96b;" horiz-adv-x="639" 
d="M90 731h440v-100h-335v-199q21 28 62.5 47t88.5 19q64 0 111.5 -22t73 -59t37.5 -77.5t12 -84.5q0 -114 -65 -184.5t-187 -70.5q-109 0 -175 54t-79 143h111q11 -47 49 -74.5t95 -27.5q71 0 106.5 43t35.5 114q0 72 -36 110.5t-106 38.5q-49 0 -82.5 -24.5t-48.5 -66.5
h-108v421z" />
    <glyph glyph-name="dvSix" unicode="&#x96c;" horiz-adv-x="642" 
d="M557 560h-105q-22 92 -121 92q-79 0 -118 -60.5t-41 -200.5q26 44 76 68t108 24q100 0 162 -64t62 -176q0 -107 -63 -175t-176 -68q-78 0 -131 26t-82.5 78t-41.5 118.5t-12 158.5q0 366 258 366q100 0 157.5 -54t67.5 -133zM331 387q-61 0 -103.5 -36.5t-42.5 -105.5
t39.5 -109.5t110.5 -40.5q63 0 99.5 39t36.5 104q0 68 -35.5 108.5t-104.5 40.5z" />
    <glyph glyph-name="dvSeven" unicode="&#x96d;" horiz-adv-x="560" 
d="M40 726h482v-85l-278 -641h-115l281 629h-370v97z" />
    <glyph glyph-name="dvEight" unicode="&#x96e;" horiz-adv-x="638" 
d="M183 381q-104 52 -104 164q0 84 62.5 140.5t177.5 56.5t177.5 -56.5t62.5 -140.5q0 -56 -28.5 -98.5t-75.5 -65.5q57 -21 90 -68.5t33 -111.5q0 -99 -72.5 -159t-186.5 -60t-186 60t-72 159q0 65 33 112t89 68zM319 417q57 0 94 32t37 82q0 56 -35 86t-96 30
q-60 0 -95 -30t-35 -87q0 -50 36.5 -81.5t93.5 -31.5zM319 331q-66 0 -107.5 -32.5t-41.5 -93.5q0 -57 40 -92.5t109 -35.5q68 0 107.5 36t39.5 92q0 60 -40.5 93t-106.5 33z" />
    <glyph glyph-name="dvNine" unicode="&#x96f;" horiz-adv-x="635" 
d="M97 198h105q20 -102 132 -102q71 0 104 56t33 191q-24 -34 -67.5 -52.5t-94.5 -18.5q-101 0 -166.5 61t-65.5 172q0 110 64.5 175.5t177.5 65.5q136 0 193.5 -90.5t57.5 -277.5q0 -195 -53 -286t-190 -91q-107 0 -165 56t-65 141zM329 368q60 0 94.5 37.5t34.5 99.5
q0 69 -36.5 107.5t-99.5 38.5t-99.5 -39.5t-36.5 -103.5q0 -61 35.5 -100.5t107.5 -39.5z" />
    <glyph glyph-name="dvAbbreviationsign" unicode="&#x970;" horiz-adv-x="488" 
d="M246 508q74 0 120 -45.5t46 -118.5q0 -71 -46.5 -116.5t-119.5 -45.5q-74 0 -121.5 46t-47.5 117q0 72 47.5 117.5t121.5 45.5zM246 444q-45 0 -74.5 -28t-29.5 -71t29.5 -71t74.5 -28q44 0 71.5 27.5t27.5 70.5q0 44 -28 72t-71 28z" />
    <glyph glyph-name="dvAcandra" unicode="&#x972;" horiz-adv-x="833" 
d="M278 456q55 0 85.5 29.5t30.5 70.5q0 47 -30.5 75.5t-76.5 28.5q-48 0 -80.5 -27.5t-32.5 -73.5h-97q0 86 58.5 138t151.5 52q90 0 145.5 -49t55.5 -130q0 -57 -30 -97.5t-87 -55.5v-2q28 -6 52 -20h205v345h226v-88h-122v-652h-104v308l-138 1q10 -29 10 -61
q0 -87 -56 -140t-148 -53q-101 0 -163.5 57t-62.5 148h98q0 -50 33.5 -82.5t87.5 -32.5q53 0 84 31t31 82q0 29 -11 51h-2v4q-32 58 -113 58h-41v85h41zM688 835q-106 0 -160 52.5t-54 133.5h91q0 -45 31 -76t92 -31t92.5 31t31.5 76h90q0 -80 -54.5 -133t-159.5 -53z" />
    <glyph glyph-name="Wgrave" unicode="&#x1e80;" horiz-adv-x="999" 
d="M216 -1l-197 696h121l144 -566l156 566h128l145 -563l145 563h122l-206 -695h-129l-146 526l-155 -526zM349 844v97l221 -122v-84z" />
    <glyph glyph-name="wgrave" unicode="&#x1e81;" horiz-adv-x="825" 
d="M182 0l-172 551h116l115 -443l117 443h119l112 -441l114 441h112l-171 -551h-120l-111 407l-111 -407h-120zM253 699v97l221 -122v-84z" />
    <glyph glyph-name="Wacute" unicode="&#x1e82;" horiz-adv-x="999" 
d="M216 -1l-197 696h121l144 -566l156 566h128l145 -563l145 563h122l-206 -695h-129l-146 526l-155 -526zM440 824l221 122v-97l-221 -109v84z" />
    <glyph glyph-name="wacute" unicode="&#x1e83;" horiz-adv-x="825" 
d="M182 0l-172 551h116l115 -443l117 443h119l112 -441l114 441h112l-171 -551h-120l-111 407l-111 -407h-120zM356 674l221 122v-97l-221 -109v84z" />
    <glyph glyph-name="Wdieresis" unicode="&#x1e84;" horiz-adv-x="999" 
d="M216 -1l-197 696h121l144 -566l156 566h128l145 -563l145 563h122l-206 -695h-129l-146 526l-155 -526zM409 767q-25 0 -42.5 17.5t-17.5 42.5t17.5 42.5t42.5 17.5t42.5 -17.5t17.5 -42.5t-17.5 -42.5t-42.5 -17.5zM581 767q-25 0 -42.5 17.5t-17.5 42.5t17.5 42.5
t42.5 17.5t42.5 -17.5t17.5 -42.5t-17.5 -42.5t-42.5 -17.5z" />
    <glyph glyph-name="wdieresis" unicode="&#x1e85;" horiz-adv-x="825" 
d="M182 0l-172 551h116l115 -443l117 443h119l112 -441l114 441h112l-171 -551h-120l-111 407l-111 -407h-120zM327 620q-25 0 -42.5 17t-17.5 43q0 25 17.5 42.5t42.5 17.5t42.5 -17.5t17.5 -42.5t-17.5 -42.5t-42.5 -17.5zM499 620q-25 0 -42.5 17t-17.5 43
q0 25 17.5 42.5t42.5 17.5t42.5 -17.5t17.5 -42.5t-17.5 -42.5t-42.5 -17.5z" />
    <glyph glyph-name="uni1EBC" unicode="&#x1ebc;" horiz-adv-x="524" 
d="M459 696v-93h-270v-204h240v-93h-240v-213h270v-93h-384v696h384zM99 753q8 58 38 87.5t75 29.5q29 0 63.5 -22t52.5 -22q37 0 43 42h64q-8 -58 -38 -87.5t-75 -29.5q-29 0 -63.5 22.5t-52.5 22.5q-37 0 -43 -43h-64z" />
    <glyph glyph-name="uni1EBD" unicode="&#x1ebd;" horiz-adv-x="617" 
d="M307 464q-59 0 -100.5 -37.5t-50.5 -101.5h305q-1 63 -45 101t-109 38zM565 164q-25 -76 -90.5 -124.5t-162.5 -48.5q-120 0 -197.5 78.5t-77.5 206.5q0 129 76 206.5t199 77.5q118 0 193 -75t75 -196q0 -31 -4 -56h-421q6 -67 49.5 -106.5t107.5 -39.5q92 0 130 77h123z
M146 608q8 58 38 87.5t75 29.5q29 0 63.5 -22t52.5 -22q37 0 43 42h64q-8 -58 -38 -87.5t-75 -29.5q-29 0 -63.5 22.5t-52.5 22.5q-37 0 -43 -43h-64z" />
    <glyph glyph-name="Ygrave" unicode="&#x1ef2;" horiz-adv-x="605" 
d="M246 252l-231 443h127l161 -341l161 341h126l-230 -443v-252h-114v252zM185 844v97l221 -122v-84z" />
    <glyph glyph-name="ygrave" unicode="&#x1ef3;" horiz-adv-x="582" 
d="M292 131l161 420h118l-338 -810h-118l112 268l-217 542h127zM173 699v97l221 -122v-84z" />
    <glyph glyph-name="uni1EF8" unicode="&#x1ef8;" horiz-adv-x="605" 
d="M246 252l-231 443h127l161 -341l161 341h126l-230 -443v-252h-114v252zM140 753q8 58 38 87.5t75 29.5q29 0 63.5 -22t52.5 -22q37 0 43 42h64q-8 -58 -38 -87.5t-75 -29.5q-29 0 -63.5 22.5t-52.5 22.5q-37 0 -43 -43h-64z" />
    <glyph glyph-name="uni1EF9" unicode="&#x1ef9;" horiz-adv-x="582" 
d="M292 131l161 420h118l-338 -810h-118l112 268l-217 542h127zM128 608q8 58 38 87.5t75 29.5q29 0 63.5 -22t52.5 -22q37 0 43 42h64q-8 -58 -38 -87.5t-75 -29.5q-29 0 -63.5 22.5t-52.5 22.5q-37 0 -43 -43h-64z" />
    <glyph glyph-name="zerowidthnonjoiner" unicode="&#x200c;" horiz-adv-x="0" 
d="M24 -230h-47v1041h47v-1041z" />
    <glyph glyph-name="zerowidthjoiner" unicode="&#x200d;" horiz-adv-x="0" 
d="M128 593l-33 -33l-72 75v-865h-47v865l-69 -73l-33 33l93 93l-95 95l33 33l95 -95l96 95l32 -32l-96 -96z" />
    <glyph glyph-name="endash" unicode="&#x2013;" horiz-adv-x="708" 
d="M87 314v96h535v-96h-535z" />
    <glyph glyph-name="emdash" unicode="&#x2014;" horiz-adv-x="924" 
d="M87 314v96h750v-96h-750z" />
    <glyph glyph-name="quoteleft" unicode="&#x2018;" horiz-adv-x="242" 
d="M130 695h80l-61 -238h-124z" />
    <glyph glyph-name="quoteright" unicode="&#x2019;" horiz-adv-x="242" 
d="M112 457h-80l61 238h124z" />
    <glyph glyph-name="quotesinglbase" unicode="&#x201a;" horiz-adv-x="202" 
d="M5 -139l71 276h124l-121 -276h-74z" />
    <glyph glyph-name="quotedblleft" unicode="&#x201c;" horiz-adv-x="426" 
d="M130 695h80l-61 -238h-124zM310 695h80l-61 -238h-124z" />
    <glyph glyph-name="quotedblright" unicode="&#x201d;" horiz-adv-x="433" 
d="M303 457h-80l61 238h124zM123 457h-80l61 238h124z" />
    <glyph glyph-name="quotedblbase" unicode="&#x201e;" horiz-adv-x="450" 
d="M5 -139l71 276h124l-121 -276h-74zM230 -139l71 276h124l-121 -276h-74z" />
    <glyph glyph-name="dagger" unicode="&#x2020;" horiz-adv-x="584" 
d="M337 541l198 10v-89l-198 10l12 -734h-114l12 734l-198 -10v89l198 -10l-12 242h114z" />
    <glyph glyph-name="daggerdbl" unicode="&#x2021;" horiz-adv-x="585" 
d="M535 551v-89l-198 10v-422l198 10v-89l-198 10l12 -243h-114l12 243l-197 -10v89l197 -10v422l-197 -10v89l197 -10l-12 242h114l-12 -242z" />
    <glyph glyph-name="bullet" unicode="&#x2022;" horiz-adv-x="462" 
d="M230 203q-54 0 -92 37.5t-38 92.5t38 93t92 38q56 0 94 -38t38 -93t-38 -92.5t-94 -37.5z" />
    <glyph glyph-name="ellipsis" unicode="&#x2026;" horiz-adv-x="638" 
d="M394 66q0 -31 -21 -52t-51 -21q-31 0 -52 21t-21 52t21 52t52 21q30 0 51 -21t21 -52zM596 66q0 -31 -21 -52t-51 -21q-31 0 -52 21t-21 52t21 52t52 21q30 0 51 -21t21 -52zM193 66q0 -31 -21 -52t-51 -21q-31 0 -52 21t-21 52t21 52t52 21q30 0 51 -21t21 -52z" />
    <glyph glyph-name="perthousand" unicode="&#x2030;" horiz-adv-x="1062" 
d="M41 553q0 71 42.5 112t109.5 41t109.5 -41t42.5 -112t-42.5 -112.5t-109.5 -41.5t-109.5 41.5t-42.5 112.5zM193 637q-63 0 -63 -84q0 -85 63 -85t63 85q0 84 -63 84zM105 0l399 696h112l-399 -696h-112zM378 144q0 71 42.5 112t109.5 41q66 0 108.5 -41t42.5 -112
t-42.5 -112.5t-108.5 -41.5q-67 0 -109.5 41.5t-42.5 112.5zM529 228q-63 0 -63 -84t63 -84t63 84t-63 84zM717 144q0 71 43 112t109 41q67 0 109.5 -41t42.5 -112t-42.5 -112.5t-109.5 -41.5q-66 0 -109 41.5t-43 112.5zM869 228q-63 0 -63 -84t63 -84t63 84t-63 84z" />
    <glyph glyph-name="guilsinglleft" unicode="&#x2039;" horiz-adv-x="297" 
d="M151 295l96 -175h-110l-92 175l92 175h110z" />
    <glyph glyph-name="guilsinglright" unicode="&#x203a;" horiz-adv-x="297" 
d="M159 120h-109l95 175l-95 175h109l93 -175z" />
    <glyph glyph-name="fraction" unicode="&#x2044;" horiz-adv-x="587" 
d="M51 0l399 696h113l-399 -696h-113z" />
    <glyph glyph-name="rupee" unicode="&#x20a8;" horiz-adv-x="1147" 
d="M444 488q0 56 -32 87t-97 31h-126v-235h126q65 0 97 31t32 86zM75 695h240q118 0 182 -58.5t64 -148.5q0 -70 -42.5 -126t-130.5 -73l184 -289h-139l-174 282h-70v-282h-114v695zM624 393q0 70 59 118.5t159 48.5q92 0 148.5 -47.5t60.5 -129.5h-117q-3 41 -28.5 64
t-71.5 23t-72 -20.5t-26 -52.5q0 -35 33 -54t80.5 -28t95 -22t80.5 -47.5t33 -92.5q0 -72 -60.5 -117t-154.5 -45q-96 0 -155 46t-65 131h118q3 -41 30 -64t72 -23q48 0 75.5 20.5t27.5 53.5q0 35 -33 54t-80.5 28.5t-95 22t-80.5 45.5t-33 88z" />
    <glyph glyph-name="Euro" unicode="&#x20ac;" horiz-adv-x="802" 
d="M98 349q0 16 2 44h-74v78h92q36 106 127 169.5t208 63.5q110 0 196.5 -54.5t125.5 -154.5h-137q-56 105 -185 105q-73 0 -128.5 -34t-84.5 -95h213v-78h-235q-3 -21 -3 -44t3 -44h235v-78h-213q29 -62 85 -96t128 -34q129 0 185 105h137q-39 -100 -125 -154t-197 -54
q-117 0 -208 63.5t-127 169.5h-92v78h74q-2 28 -2 44z" />
    <glyph glyph-name="indianrupee" unicode="&#x20b9;" horiz-adv-x="622" 
d="M46 613v83h544v-83h-116v-75v-14h116v-82h-122q-16 -99 -78 -140t-195 -41v-63q0 -119 103 -119q102 0 102 115h105q-1 -101 -54.5 -152.5t-154.5 -51.5t-154.5 56t-53.5 157v137q159 0 210.5 17t63.5 85h-316v82h321v14v75h-321z" />
    <glyph glyph-name="uni20BA" unicode="&#x20ba;" horiz-adv-x="850" 
d="M281 701v-189l164 38v-80l-164 -37v-85l159 36v-80l-159 -36v-169q33 -7 78 -7q136 0 194 85t58 251h117q0 -227 -87.5 -335t-281.5 -108q-84 0 -195 25v231l-149 -34v81l149 34v85l-153 -35v78l153 35v216h117z" />
    <glyph glyph-name="uni20BD" unicode="&#x20bd;" horiz-adv-x="635" 
d="M229 606v-235h126q65 0 97 31t32 86q0 56 -32 87t-97 31h-126zM26 282v89h89v324h240q118 0 182 -58.5t64 -148.5q0 -85 -60.5 -145.5t-185.5 -60.5h-126v-82h199v-91h-199v-109h-114v109h-89v91h89v82h-89z" />
    <glyph glyph-name="uni2113" unicode="&#x2113;" horiz-adv-x="264" 
d="M75 0v740h114v-740h-114z" />
    <glyph glyph-name="trademark" unicode="&#x2122;" horiz-adv-x="811" 
d="M24 636v68h245v-68h-79l1 -284h-90l2 284h-79zM327 352v352h116l96 -247l101 247h110v-352h-82l-2 238l-99 -238h-61l-98 243v-243h-81z" />
    <glyph glyph-name="uni2126" unicode="&#x2126;" horiz-adv-x="785" 
d="M38 349q0 154 102 254.5t252 100.5t252.5 -100.5t102.5 -254.5q0 -81 -32.5 -149t-94.5 -111h116v-89h-273v92q75 26 121.5 92t46.5 158q0 118 -67 188t-172 70q-106 0 -172 -70t-66 -188q0 -92 46.5 -158t121.5 -92v-92h-274v89h116q-62 43 -94 111t-32 149z" />
    <glyph glyph-name="estimated" unicode="&#x212e;" horiz-adv-x="757" 
d="M685 136q-133 -143 -298 -143q-151 0 -247.5 90t-96.5 249q0 162 89.5 267t245.5 105q104 0 182 -47t116 -120t38 -159v-62h-520v-170q76 -81 193 -81q72 0 131.5 30.5t120.5 91.5zM194 387h362v174q-64 72 -178 72q-120 0 -184 -82v-164z" />
    <glyph glyph-name="partialdiff" unicode="&#x2202;" horiz-adv-x="585" 
d="M420 321q0 69 -28 106t-76 37q-69 0 -115.5 -67t-46.5 -166q0 -72 27.5 -108t73.5 -36q69 0 117 69.5t48 164.5zM38 231q0 134 80.5 231.5t193.5 97.5q71 0 116 -53q-6 76 -41.5 121t-99.5 45q-34 0 -79 -12v64q46 15 96 15q115 0 179 -90t64 -240q0 -189 -88.5 -304
t-216.5 -115q-90 0 -147 61t-57 179z" />
    <glyph glyph-name="uni2206" unicode="&#x2206;" horiz-adv-x="696" 
d="M20 88l281 608h94l281 -608v-88h-656v88zM559 88l-211 478l-211 -478h422z" />
    <glyph glyph-name="product" unicode="&#x220f;" horiz-adv-x="741" 
d="M31 607v89h679v-89h-77v-607h-113v607h-299v-607h-114v607h-76z" />
    <glyph glyph-name="summation" unicode="&#x2211;" horiz-adv-x="480" 
d="M40 564v132h400v-88h-303l262 -241v-88l-263 -247h304v-88h-400v133l254 244z" />
    <glyph glyph-name="minus" unicode="&#x2212;" horiz-adv-x="585" 
d="M87 314v96h411v-96h-411z" />
    <glyph glyph-name="uni2215" unicode="&#x2215;" horiz-adv-x="514" 
d="M61 -175l271 1119h113l-272 -1119h-112z" />
    <glyph glyph-name="uni2219" unicode="&#x2219;" horiz-adv-x="244" 
d="M197 335q0 -31 -21 -52t-51 -21q-31 0 -52 21t-21 52t21 52t52 21q30 0 51 -21t21 -52z" />
    <glyph glyph-name="radical" unicode="&#x221a;" horiz-adv-x="829" 
d="M314 -43h-58l-132 233l-69 -41l-34 57l167 99l119 -211l429 785h82z" />
    <glyph glyph-name="infinity" unicode="&#x221e;" horiz-adv-x="702" 
d="M194 274q63 0 107 67q-32 40 -56 60t-51 20q-32 0 -52 -19.5t-20 -54.5t20 -54t52 -19zM508 274q32 0 52 19.5t20 54.5t-20 54t-52 19q-31 0 -60.5 -19t-49.5 -52q30 -38 55 -57t55 -19zM27 347q0 71 46.5 113.5t114.5 42.5q86 0 164 -95q60 96 166 95q67 -1 112 -42.5
t45 -112.5t-46.5 -113.5t-114.5 -42.5q-85 0 -166 92q-60 -93 -164 -92q-68 1 -112.5 42.5t-44.5 112.5z" />
    <glyph glyph-name="integral" unicode="&#x222b;" horiz-adv-x="270" 
d="M35 -64l91 835q9 83 51 118.5t119 35.5h22l-10 -95h-16q-24 0 -36 -13.5t-16 -45.5l-90 -835q-9 -82 -51.5 -117.5t-119.5 -35.5h-21l9 94h17q45 0 51 59z" />
    <glyph glyph-name="approxequal" unicode="&#x2248;" horiz-adv-x="553" 
d="M36 180q28 165 159 165q42 0 93.5 -32.5t77.5 -32.5q25 0 44.5 16.5t23.5 46.5h83q-28 -165 -160 -165q-42 0 -92.5 32.5t-77.5 32.5q-26 0 -45.5 -16.5t-23.5 -46.5h-82zM36 402q28 165 159 165q42 0 93.5 -32.5t77.5 -32.5q25 0 44.5 16.5t23.5 46.5h83
q-28 -165 -160 -165q-42 0 -92.5 32.5t-77.5 32.5q-26 0 -45.5 -16.5t-23.5 -46.5h-82z" />
    <glyph glyph-name="notequal" unicode="&#x2260;" horiz-adv-x="752" 
d="M121 105l83 95h-83v96h167l115 131h-282v96h366l82 94h84l-82 -94h82v-96h-166l-115 -131h281v-96h-365l-83 -95h-84z" />
    <glyph glyph-name="lessequal" unicode="&#x2264;" horiz-adv-x="549" 
d="M91 67v86h369v-86h-369zM465 208h-150l-230 190l230 190h150l-229 -189z" />
    <glyph glyph-name="greaterequal" unicode="&#x2265;" horiz-adv-x="549" 
d="M234 208h-149l228 191l-228 189h149l231 -190zM89 153h369v-86h-369v86z" />
    <glyph glyph-name="lozenge" unicode="&#x25ca;" horiz-adv-x="557" 
d="M31 351l248 247l247 -247l-247 -248zM404 351l-125 125l-125 -125l125 -126z" />
    <glyph glyph-name="dottedcircle" unicode="&#x25cc;" horiz-adv-x="651" 
d="M557 409q0 -19 -12 -30.5t-31 -11.5t-31 11.5t-12 30.5t12 30.5t31 11.5t31 -11.5t12 -30.5zM181 123q0 -19 -12 -30.5t-31 -11.5t-31 11.5t-12 30.5t12 30.5t31 11.5t31 -11.5t12 -30.5zM279 47q0 -19 -12 -30.5t-31 -11.5t-31 11.5t-12 30.5t12 30.5t31 11.5t31 -11.5
t12 -30.5zM136 236q0 -19 -12 -30.5t-31 -11.5t-31 11.5t-12 30.5t12 30.5t31 11.5t31 -11.5t12 -30.5zM403 33q0 -19 -12 -30.5t-31 -11.5t-31 11.5t-12 30.5t12 30.5t31 11.5t31 -11.5t12 -30.5zM151 357q0 -19 -12 -30.5t-31 -11.5t-31 11.5t-12 30.5t12 30.5t31 11.5
t31 -11.5t12 -30.5zM518 79q0 -19 -12 -30.5t-31 -11.5t-31 11.5t-12 30.5t12 30.5t31 11.5t31 -11.5t12 -30.5zM227 456q0 -19 -12 -30.5t-31 -11.5t-31 11.5t-12 30.5t12 30.5t31 11.5t31 -11.5t12 -30.5zM591 175q0 -19 -12 -30.5t-31 -11.5t-31 11.5t-12 30.5t12 30.5
t31 11.5t31 -11.5t12 -30.5zM344 498q0 -19 -12 -30.5t-31 -11.5t-31 11.5t-12 30.5t12 30.5t31 11.5t31 -11.5t12 -30.5zM601 295q0 -19 -12 -30.5t-31 -11.5t-31 11.5t-12 30.5t12 30.5t31 11.5t31 -11.5t12 -30.5zM465 483q0 -19 -12 -30.5t-31 -11.5t-31 11.5t-12 30.5
t12 30.5t31 11.5t31 -11.5t12 -30.5z" />
    <glyph glyph-name="fi" unicode="&#xfb01;" horiz-adv-x="596" 
d="M89 0v458h-65v93h65v39q0 95 50.5 138.5t158.5 43.5v-95q-52 0 -73 -19.5t-21 -67.5v-39h317v-551h-114v458h-203v-458h-115zM464 624q-30 0 -51 21t-21 52t21 52t51 21q31 0 52 -21t21 -52t-21 -52t-52 -21z" />
    <glyph glyph-name="fl" unicode="&#xfb02;" horiz-adv-x="596" 
d="M89 0v458h-65v93h65v39q0 95 50.5 138.5t158.5 43.5v-95q-52 0 -73 -19.5t-21 -67.5v-39h102v-93h-102v-458h-115zM407 0v740h114v-740h-114z" />
    <glyph glyph-name="dvK_SSA" horiz-adv-x="818" 
d="M188 560q0 -50 38 -81.5t99 -33.5q77 48 77 114q0 44 -30.5 72t-76.5 28q-45 0 -76 -26t-31 -73zM381 -57v158q-15 -27 -50 -48.5t-86 -21.5q-79 0 -128 46.5t-49 120.5q0 73 43.5 116t123.5 83q-62 15 -101.5 58.5t-39.5 111.5q0 83 58 133t146 50q82 0 137 -45.5
t55 -125.5q0 -78 -64 -135h193v296h223v-88h-122v-652h-101v367h-296q-34 -16 -46.5 -22.5t-37.5 -22t-35 -28t-19 -32.5t-9 -43q0 -43 28.5 -72t75.5 -29q50 0 79.5 32.5t29.5 79.5h88v-287h-96z" />
    <glyph glyph-name="dvJ_NYA" horiz-adv-x="817" 
d="M615 0v434h-187q85 -49 85 -154q0 -82 -52 -132t-133 -50q-54 0 -96 21t-66 55v-149h-102v278h98q6 -56 44 -87.5t91 -31.5q56 0 88 33.5t32 85.5q0 62 -42 96.5t-106 34.5h-26v84h372v134h-639v88h864v-88h-122v-652h-103z" />
    <glyph glyph-name="dvK" horiz-adv-x="727" 
d="M449 0v183q-50 -95 -173 -95q-95 0 -153 64t-58 169q0 104 59.5 167t155.5 63q119 0 169 -92v193h-473v88h945v-88h-371v-195q48 94 164 94q92 0 149.5 -64.5t57.5 -165.5h-106q0 62 -37.5 101t-94.5 39q-66 0 -99.5 -44t-33.5 -105v-312h-101zM310 176q66 0 102.5 43.5
t36.5 99.5q0 57 -36 99.5t-103 42.5q-59 0 -99 -38.5t-40 -102.5q0 -66 39 -105t100 -39z" />
    <glyph glyph-name="dvKH" horiz-adv-x="673" 
d="M-24 652v88h865v-88h-485v-121q0 -103 -47.5 -153t-126.5 -54v-83q0 -69 42 -111.5t116 -42.5q97 0 141 82q-78 58 -78 164q0 94 60.5 149t158.5 55t158.5 -55t60.5 -149q0 -95 -61.5 -150t-157.5 -55q-30 0 -59 6q-31 -62 -89 -100t-137 -38q-119 0 -189 68t-70 189v147
h33q67 0 103.5 32.5t36.5 111.5v108h-275zM496 333q0 -57 34.5 -91t91.5 -34q58 0 92.5 34t34.5 91t-34.5 91t-92.5 34q-57 0 -91.5 -34t-34.5 -91z" />
    <glyph glyph-name="dvG" horiz-adv-x="499" 
d="M-24 652v88h547v-88h-123v-257q0 -83 -43.5 -135t-132.5 -52q-87 0 -133.5 48.5t-46.5 132.5q0 21 1 31h102v-31q0 -39 17.5 -65t56.5 -26q74 0 74 93v261h-319z" />
    <glyph glyph-name="dvGH" horiz-adv-x="411" 
d="M-24 652v88h617v-88h-395v-63q0 -109 123 -109h45v-85h-53q-65 0 -97 -27.5t-32 -72.5q0 -52 38.5 -79.5t100.5 -27.5q81 0 131 48t50 123h89q0 -110 -74 -183.5t-196 -73.5q-114 0 -179.5 47t-65.5 136q0 60 36 99.5t89 50.5v2q-110 22 -110 147v68h-117z" />
    <glyph glyph-name="dvNG" horiz-adv-x="672" 
d="M594 326q-25 0 -43 17.5t-18 42.5q0 26 17.5 43.5t43.5 17.5t43.5 -17.5t17.5 -43.5q0 -25 -18 -42.5t-43 -17.5zM389 -295l-124 206h105l127 -206h-108zM-24 652v88h720v-88h-227v-182h-179q-105 0 -105 -72t93 -72h45q87 0 146 -41t59 -130q0 -78 -56 -124.5
t-159 -46.5q-111 0 -178.5 52.5t-69.5 140.5h104q1 -51 38 -82t103 -31q57 0 88 25.5t31 66.5q0 95 -125 95h-39q-75 0 -130 34.5t-55 115.5q0 74 52 109t129 35h106v107h-391z" />
    <glyph glyph-name="dvC" horiz-adv-x="451" 
d="M50 440v83h365v-83h-37q-62 0 -100.5 -36.5t-38.5 -94.5q0 -59 40.5 -93t100.5 -34q70 1 113.5 50t43.5 123h90q2 -115 -68 -188t-189 -73q-101 0 -165.5 52t-64.5 146q0 98 76 148h-166zM-24 652v88h651v-88h-651z" />
    <glyph glyph-name="dvCH" horiz-adv-x="819" 
d="M-24 652v88h867v-88h-648v-91q0 -109 117 -109h21v-85h-19q-69 0 -103.5 -31.5t-34.5 -80.5q0 -68 58.5 -104t165.5 -36q128 0 204.5 60t76.5 166q0 60 -28.5 94t-68.5 34q-38 0 -65.5 -26.5t-27.5 -78.5q0 -40 16 -88h-87q-17 46 -17 99q0 87 52.5 129.5t129.5 42.5
q83 0 136 -55t53 -155q0 -144 -101.5 -228t-273.5 -84q-150 0 -239.5 56.5t-89.5 163.5q0 65 36 107t94 55v3q-49 9 -79 45t-30 102v95h-115z" />
    <glyph glyph-name="dvJ" horiz-adv-x="547" 
d="M271 122q-96 0 -149.5 57t-53.5 151v166h106v-164q0 -54 26 -86t72 -32q47 0 74 32t27 86v164h324v-90h-222v-76q0 -93 -55 -150.5t-149 -57.5zM-24 652v88h721v-88h-721z" />
    <glyph glyph-name="dvJH" horiz-adv-x="567" 
d="M195 64v-143h-99v250h94q6 -45 40 -73.5t92 -28.5q51 0 77.5 24.5t26.5 61.5q0 45 -32 70.5t-93 25.5h-56q-71 3 -120 39t-49 108q0 76 52 112t131 36h106v106h-389v88h710v-88h-220v-182h-179q-106 0 -106 -73q0 -71 95 -71h410v-80l-200 1q37 -42 37 -105
q0 -67 -44 -109t-126 -42q-106 0 -158 73z" />
    <glyph glyph-name="dvNY" horiz-adv-x="540" 
d="M289 79q-96 0 -155.5 51t-68.5 129h99q11 -39 43.5 -65t82.5 -26q64 0 99 42.5t35 105.5q0 62 -35 104.5t-99 42.5q-51 0 -83.5 -26.5t-42.5 -64.5h-99q9 79 68 129.5t156 50.5q93 0 152.5 -51.5t73.5 -135.5h155v-89h-154q-12 -89 -71.5 -143t-155.5 -54zM-24 652v88
h694v-88h-694z" />
    <glyph glyph-name="dvTT" horiz-adv-x="649" 
d="M414 -243l-124 206h105l127 -206h-108zM-24 652v88h697v-88h-201v-193h-112q-84 0 -137 -43.5t-53 -126.5q0 -71 47 -116.5t121 -45.5q76 0 123 47.5t47 122.5h100q0 -117 -73.5 -189t-194.5 -72t-198 70t-77 183q0 122 78.5 190.5t210.5 68.5h15v104h-393z" />
    <glyph glyph-name="dvTTH" horiz-adv-x="674" 
d="M337 130q75 0 122 46.5t47 118.5t-47 117.5t-122 45.5q-74 0 -121 -45.5t-47 -117.5t47.5 -118.5t120.5 -46.5zM337 42q-118 0 -195 69.5t-77 183.5q0 101 61.5 166.5t157.5 81.5v109h-308v88h722v-88h-310v-109q97 -15 159.5 -80.5t62.5 -167.5q0 -114 -77.5 -183.5
t-195.5 -69.5zM413 -237l-124 206h105l127 -206h-108z" />
    <glyph glyph-name="dvDD" horiz-adv-x="572" 
d="M382 -295l-124 206h105l127 -206h-108zM-24 652v88h619v-88h-131v-182h-174q-105 0 -105 -72t93 -72h45q87 0 146 -41t59 -130q0 -78 -56 -124.5t-159 -46.5q-111 0 -178.5 52.5t-69.5 140.5h104q1 -51 38 -82t103 -31q57 0 88 25.5t31 66.5q0 95 -125 95h-39
q-75 0 -130 34.5t-55 115.5q0 74 52 109t129 35h102v107h-387z" />
    <glyph glyph-name="dvDDH" horiz-adv-x="645" 
d="M423 -276l-124 206h105l127 -206h-108zM-24 652v88h693v-88h-178v-173h-101q-100 0 -162 -52t-62 -150q0 -87 56 -142t152 -55q68 0 112 33t44 88q0 39 -24.5 64t-62.5 25q-33 0 -56 -21t-23 -55q0 -12 3 -19h-77q-3 16 -3 33q0 64 45 101t115 37q79 0 126 -45.5
t47 -119.5q0 -91 -66.5 -144.5t-181.5 -53.5q-134 0 -220.5 75.5t-86.5 201.5q0 131 81.5 202t211.5 71h34v99h-416z" />
    <glyph glyph-name="dvNN" horiz-adv-x="570" 
d="M-24 652v88h618v-88h-107v-274q0 -92 -52 -149t-148 -57q-95 0 -147 57.5t-52 148.5v274h-112zM288 261q45 0 70.5 29.5t25.5 77.5v284h-193v-284q0 -48 26.5 -77.5t70.5 -29.5z" />
    <glyph glyph-name="dvT" horiz-adv-x="390" 
d="M546 406h-191q-86 0 -135 -41t-49 -119q0 -76 43.5 -118.5t125.5 -42.5h21v-83h-36q-118 0 -189 62.5t-71 183.5q0 124 78 186t207 62h196v-90zM-24 652v88h570v-88h-570z" />
    <glyph glyph-name="dvTH" horiz-adv-x="473" 
d="M662 354q0 -119 -85 -189.5t-213 -70.5q-137 0 -214.5 73t-77.5 203q0 31 4 58h95q200 0 200 133q0 42 -25.5 70t-68.5 28q-45 0 -71.5 -27.5t-26.5 -74.5q0 -15 4 -41h-95q-4 28 -4 44q0 88 54.5 138.5t139.5 50.5q86 0 138.5 -53t52.5 -138q0 -100 -69.5 -153
t-189.5 -53h-37q2 -77 50 -123.5t139 -46.5q92 0 150.5 46.5t58.5 125.5h91z" />
    <glyph glyph-name="dvD" horiz-adv-x="609" 
d="M556 -300l-124 206h105l127 -206h-108zM-24 652v88h658l-1 -88h-135v-191h-157q-74 0 -121.5 -39t-47.5 -109q0 -64 38 -102t102 -38q51 0 89 32t38 91h97v-317h-103v179q-47 -69 -150 -69q-96 0 -157 60t-61 167q0 113 74.5 174t191.5 61h62v101h-417z" />
    <glyph glyph-name="dvDH" horiz-adv-x="428" 
d="M324 91q-107 0 -174 45.5t-67 131.5q0 61 36 99t84 46v3q-54 13 -90.5 55t-36.5 110q0 75 49 121.5t127 46.5q79 0 124.5 -45t45.5 -117q0 -13 -2 -35h-79q1 12 1 23q0 37 -23 61.5t-64 24.5t-65 -26t-24 -65q0 -53 40 -82t105 -29h58v-85h-54q-60 0 -92.5 -25.5
t-32.5 -69.5q0 -51 41 -75.5t102 -24.5q88 0 138 41.5t50 109.5h92q0 -107 -78.5 -173t-210.5 -66z" />
    <glyph glyph-name="dvN" horiz-adv-x="511" 
d="M268 103q-89 0 -149 54.5t-60 144.5q0 94 61.5 147t156.5 53h391v-88h-246q45 -52 45 -125q0 -86 -56.5 -136t-142.5 -50zM270 192q50 0 81.5 31t31.5 80q0 48 -32 79.5t-81 31.5q-51 0 -83.5 -31.5t-32.5 -80.5t32 -79.5t84 -30.5zM-24 652v88h692v-88h-692z" />
    <glyph glyph-name="dvP" horiz-adv-x="362" 
d="M-24 652v88h570v-88h-361v-215q0 -76 34.5 -119t104.5 -43q63 0 99 41.5t36 102.5h87q0 -103 -61 -168t-169 -65q-114 0 -175 68.5t-61 182.5v215h-104z" />
    <glyph glyph-name="dvPH" horiz-adv-x="726" 
d="M313 275q60 0 93.5 40t33.5 99v238h-255v-220q0 -74 32 -115.5t96 -41.5zM-24 652v88h945v-88h-376v-195q23 43 66.5 68.5t103.5 25.5q98 0 152 -63t54 -167h-106q0 65 -34 102.5t-98 37.5q-68 0 -103 -46.5t-35 -113.5v-301h-105v260q-50 -74 -152 -74
q-101 0 -154.5 66.5t-53.5 179.5v220h-104z" />
    <glyph glyph-name="dvB" horiz-adv-x="406" 
d="M321 81q-114 0 -185 67t-71 174q0 106 70 173t185 67q123 0 188.5 -71t65.5 -167q0 -103 -67 -173t-186 -70zM323 489q-66 0 -115 -41l258 -217q25 41 25 90q0 67 -44.5 117.5t-123.5 50.5zM-24 652v88h600v-88h-600zM324 155q69 0 113 41l-259 217q-25 -41 -25 -93
q0 -75 50 -120t121 -45z" />
    <glyph glyph-name="dvBH" horiz-adv-x="519" 
d="M264 178q45 0 69.5 31.5t24.5 87.5v74h-82q-49 0 -78.5 -26t-29.5 -71q0 -44 27 -70t69 -26zM265 89q-88 0 -141.5 51t-53.5 134q0 87 57 135t146 48h85v89q0 113 -81 113q-36 0 -58.5 -25t-22.5 -68q0 -19 4 -36h-105q-4 24 -4 40q0 81 48 130t134 49q183 0 183 -221
v-71h199v-86h-199v-69q0 -102 -49.5 -157.5t-141.5 -55.5z" />
    <glyph glyph-name="dvM" horiz-adv-x="513" 
d="M239 178q45 0 70 31.5t25 87.5v74h-83q-48 0 -78 -26t-30 -71q0 -44 27 -70t69 -26zM-24 652v88h675v-88h-219v-195h219v-86h-219v-69q0 -102 -49.5 -157.5t-142.5 -55.5q-88 0 -141 51t-53 134q0 87 56.5 135t145.5 48h86v195h-358z" />
    <glyph glyph-name="dvY" horiz-adv-x="441" 
d="M636 358q1 -111 -77.5 -183.5t-206.5 -72.5q-134 0 -210.5 75.5t-76.5 207.5q0 25 3 51h13q86 0 128 36.5t42 117.5v62h-275v88h660v-88h-281v-80q0 -182 -187 -193v-4q0 -86 51.5 -135t136.5 -49q80 0 132 47t52 120h96z" />
    <glyph glyph-name="dvR" horiz-adv-x="534" 
d="M344 -290l-124 206h105l127 -206h-108zM-24 652v88h582v-88h-110v-83q0 -242 -230 -242h-38v-125q0 -55 25 -88t74 -33q45 0 71.5 30.5t26.5 81.5v22h101v-19q0 -94 -52.5 -149.5t-144.5 -55.5q-99 0 -151.5 59.5t-52.5 156.5v206h104q163 0 163 156v83h-368z" />
    <glyph glyph-name="dvL" horiz-adv-x="657" 
d="M455 402q42 135 179 135q92 0 150 -62t58 -170l-106 -2q0 63 -31 102.5t-87 39.5q-60 0 -90.5 -44.5t-30.5 -119.5v-18h-88v18q0 74 -29 119t-87 45t-90 -39t-32 -103q0 -70 38 -112t106 -42q8 0 28 2v-92q-26 -2 -34 -2q-116 0 -180 69t-64 179q0 109 60 170.5t154 61.5
q71 0 113.5 -38.5t59.5 -96.5h3zM-24 652v88h866v-88h-866z" />
    <glyph glyph-name="dvV" horiz-adv-x="384" 
d="M319 86q-116 0 -185 65.5t-69 172.5q0 103 70 167t184 64q124 0 189.5 -70t65.5 -166q0 -94 -66.5 -163.5t-188.5 -69.5zM321 169q73 0 113 46t40 105q0 61 -39.5 106t-113.5 45q-67 0 -111 -41t-44 -109q0 -69 43.5 -110.5t111.5 -41.5zM-24 652v88h598v-88h-598z" />
    <glyph glyph-name="dvSH" horiz-adv-x="542" 
d="M304 -8q-105 0 -163 61.5t-58 165.5v180h144q82 0 134.5 35t52.5 107q0 54 -29 85.5t-79 31.5t-79 -31.5t-29 -85.5q0 -13 2 -41h-104q-4 30 -4 44q0 92 58 148.5t156 56.5q97 0 155.5 -56.5t58.5 -158.5q0 -109 -71.5 -166.5t-184.5 -57.5h-75v-98q0 -58 27.5 -93.5
t84.5 -35.5q50 0 78 32.5t28 85.5v14h102v-15q0 -97 -55 -152.5t-150 -55.5z" />
    <glyph glyph-name="dvSS" horiz-adv-x="386" 
d="M326 268q54 0 89 25.5t46 63.5l-280 217v-140q0 -166 145 -166zM-24 652v88h579v-88h-373l373 -283q0 -73 -62.5 -131.5t-170.5 -58.5q-118 0 -180 70t-62 188v215h-104z" />
    <glyph glyph-name="dvS" horiz-adv-x="520" 
d="M-24 652v88h655v-88h-200v-84q0 -89 -48 -147h248v-86h-451v-132q0 -55 25.5 -88.5t75.5 -33.5q47 0 73.5 30.5t26.5 81.5v12h101q1 -7 1 -17q0 -91 -53.5 -144t-146.5 -53q-99 0 -152.5 60t-53.5 157v203h87q82 0 122.5 42t40.5 115v84h-351z" />
    <glyph glyph-name="dvH" horiz-adv-x="586" 
d="M532 66q-10 -74 -70.5 -123t-155.5 -49q-110 0 -173 62.5t-63 161.5q0 125 102 184q-78 39 -78 120q0 61 44 94t118 33h116v103h-396v88h633v-88h-137v-179h-180q-94 0 -94 -71q0 -51 56 -71q28 5 54 5q100 0 156.5 -48.5t67.5 -122.5h-100q-9 35 -41.5 61t-84.5 26
q-61 0 -97 -38.5t-36 -97.5q0 -60 35.5 -97.5t97.5 -37.5q50 0 83 25t43 60h100zM375 -385l-124 206h105l127 -206h-108z" />
    <glyph glyph-name="dvLL" horiz-adv-x="987" 
d="M291 83q-97 0 -161.5 63t-64.5 164q0 103 64.5 166.5t160.5 63.5q142 0 202 -131h3q27 61 78.5 96t122.5 35q97 0 161.5 -63.5t64.5 -166.5q0 -101 -64.5 -164t-161.5 -63q-73 0 -126 36.5t-75 96.5h-4q-21 -60 -74 -96.5t-126 -36.5zM305 173q61 0 99 38t38 99
q0 62 -38 101t-99 39t-99.5 -39t-38.5 -102q0 -61 39 -98.5t99 -37.5zM681 173q61 0 99.5 37.5t38.5 98.5q0 63 -38.5 102t-98.5 39q-61 0 -99 -39t-38 -101q0 -61 37.5 -99t98.5 -38zM-24 652v88h1034v-88h-1034z" />
    <glyph glyph-name="dvK_SS" horiz-adv-x="538" 
d="M188 560q0 -50 38 -81.5t99 -33.5q77 48 77 114q0 44 -30.5 72t-76.5 28q-45 0 -76 -26t-31 -73zM381 -57v158q-15 -27 -50 -48.5t-86 -21.5q-79 0 -128 46.5t-49 120.5q0 73 43.5 116t123.5 83q-62 15 -101.5 58.5t-39.5 111.5q0 83 58 133t146 50q82 0 137 -45.5
t55 -125.5q0 -78 -64 -135h231v-77h-334q-34 -16 -46.5 -22.5t-37.5 -22t-35 -28t-19 -32.5t-9 -43q0 -43 28.5 -72t75.5 -29q50 0 79.5 32.5t29.5 79.5h88v-287h-96z" />
    <glyph glyph-name="dvJ_NY" horiz-adv-x="538" 
d="M-24 652v88h731v-88h-731zM243 434v84h464v-84h-279q85 -49 85 -154q0 -82 -52 -132t-133 -50q-54 0 -96 21t-66 55v-149h-102v278h98q6 -56 44 -87.5t91 -31.5q56 0 88 33.5t32 85.5q0 62 -42 96.5t-106 34.5h-26z" />
    <glyph glyph-name="dvKx" horiz-adv-x="727" 
d="M449 0v183q-50 -95 -173 -95q-95 0 -153 64t-58 169q0 104 59.5 167t155.5 63q119 0 169 -92v193h-473v88h945v-88h-371v-195q48 94 164 94q92 0 149.5 -64.5t57.5 -165.5h-106q0 62 -37.5 101t-94.5 39q-66 0 -99.5 -44t-33.5 -105v-312h-101zM260 -118q-28 0 -47 18.5
t-19 46.5t19 47.5t47 19.5t47.5 -19t19.5 -48q0 -28 -19 -46.5t-48 -18.5zM310 176q66 0 102.5 43.5t36.5 99.5q0 57 -36 99.5t-103 42.5q-59 0 -99 -38.5t-40 -102.5q0 -66 39 -105t100 -39z" />
    <glyph glyph-name="dvKHx" horiz-adv-x="673" 
d="M-24 652v88h865v-88h-485v-121q0 -103 -47.5 -153t-126.5 -54v-83q0 -69 42 -111.5t116 -42.5q97 0 141 82q-78 58 -78 164q0 94 60.5 149t158.5 55t158.5 -55t60.5 -149q0 -95 -61.5 -150t-157.5 -55q-30 0 -59 6q-31 -62 -89 -100t-137 -38q-119 0 -189 68t-70 189v147
h33q67 0 103.5 32.5t36.5 111.5v108h-275zM318 -207q-28 0 -47 18.5t-19 46.5t19 47.5t47 19.5t47.5 -19.5t19.5 -47.5t-19 -46.5t-48 -18.5zM496 333q0 -57 34.5 -91t91.5 -34q58 0 92.5 34t34.5 91t-34.5 91t-92.5 34q-57 0 -91.5 -34t-34.5 -91z" />
    <glyph glyph-name="dvGx" horiz-adv-x="499" 
d="M-24 652v88h547v-88h-123v-257q0 -83 -43.5 -135t-132.5 -52q-87 0 -133.5 48.5t-46.5 132.5q0 21 1 31h102v-31q0 -39 17.5 -65t56.5 -26q74 0 74 93v261h-319zM227 -1q-28 0 -47 18.5t-19 46.5t19 47.5t47 19.5q29 0 48 -19.5t19 -47.5t-19 -46.5t-48 -18.5z" />
    <glyph glyph-name="dvJx" horiz-adv-x="547" 
d="M271 122q-96 0 -149.5 57t-53.5 151v166h106v-164q0 -54 26 -86t72 -32q47 0 74 32t27 86v164h324v-90h-222v-76q0 -93 -55 -150.5t-149 -57.5zM-24 652v88h721v-88h-721zM274 -83q-28 0 -47 18.5t-19 46.5t19 47.5t47 19.5t47.5 -19.5t19.5 -47.5t-19 -46.5t-48 -18.5z
" />
    <glyph glyph-name="dvPHx" horiz-adv-x="726" 
d="M313 275q60 0 93.5 40t33.5 99v238h-255v-220q0 -74 32 -115.5t96 -41.5zM-24 652v88h945v-88h-376v-195q23 43 66.5 68.5t103.5 25.5q98 0 152 -63t54 -167h-106q0 65 -34 102.5t-98 37.5q-68 0 -103 -46.5t-35 -113.5v-301h-105v260q-50 -74 -152 -74
q-101 0 -154.5 66.5t-53.5 179.5v220h-104zM250 -15q-28 0 -47 18.5t-19 46.5t19 47.5t47 19.5t47.5 -19.5t19.5 -47.5t-19 -46.5t-48 -18.5z" />
    <glyph glyph-name="dvReph" horiz-adv-x="0" 
d="M-196 722v89q0 89 42.5 144.5t133.5 55.5q83 0 128 -49t42 -130h-92q2 41 -19 66t-57 25q-80 0 -80 -111v-90h-98z" />
    <glyph glyph-name="dvEyelash" horiz-adv-x="311" 
d="M403 375q-53 -32 -134 -32q-45 0 -85.5 11t-75.5 33.5t-56 63.5t-22 95h100q1 -45 25 -74.5t56.5 -40.5t72.5 -11q39 0 80 15zM-24 652v88h412v-88h-412z" />
    <glyph glyph-name="dvRashtrasign" horiz-adv-x="0" 
d="M-491 -97l160 179h140l161 -179h-109l-122 139l-122 -139h-108z" />
    <glyph glyph-name="dvK_RA" horiz-adv-x="986" 
d="M449 0v188q-15 -26 -34 -44l-185 -190h-114l141 143q-85 6 -138.5 67t-53.5 157q0 104 59.5 167t155.5 63q119 0 169 -92v193h-473v88h1033v-88h-459v-195q48 94 164 94q92 0 149.5 -64t57.5 -164q0 -106 -58 -167.5t-150 -61.5q-36 0 -64 7v83q15 -4 37 -4
q56 0 92.5 37.5t36.5 103.5q0 62 -37.5 101t-94.5 39q-65 0 -98.5 -44t-34.5 -105v-312h-101zM310 176q16 0 29 3l4 4l6 -2q48 12 74 52t26 86q0 57 -36 99.5t-103 42.5q-59 0 -99 -38.5t-40 -102.5q0 -66 39 -105t100 -39z" />
    <glyph glyph-name="dvKH_RA" horiz-adv-x="941" 
d="M739 0v200q-45 -71 -141 -71q-19 0 -37 3q-17 -30 -35 -51l-206 -222h-112v6l130 135h-1q-119 0 -189 67t-70 186v147h33q67 0 103.5 32.5t36.5 111.5v108h-275v88h989v-88h-122v-652h-104zM619 210q58 0 89 37.5t31 86.5q0 50 -30.5 87t-89.5 37q-52 0 -87.5 -33
t-35.5 -89q0 -59 35 -92.5t88 -33.5zM340 87q95 0 140 79q-78 57 -78 170q0 90 55.5 146.5t140.5 56.5q96 0 141 -71v184h-383v-121q0 -103 -47.5 -153t-126.5 -54v-83q0 -69 42 -111.5t116 -42.5z" />
    <glyph glyph-name="dvG_RA" horiz-adv-x="765" 
d="M565 0v231l-250 -251h-121l369 359v313h-163v-199q0 -83 -43.5 -135t-132.5 -52q-87 0 -133.5 48.5t-46.5 132.5q0 21 1 31h102v-31q0 -39 17.5 -65t56.5 -26q74 0 74 92v204h-319v88h813v-88h-122v-652h-102z" />
    <glyph glyph-name="dvGH_RA" horiz-adv-x="707" 
d="M323 188q77 0 129 48t52 123v293h-306v-61q0 -111 123 -111h45v-85h-53q-65 0 -97 -27.5t-32 -72.5q0 -52 38.5 -79.5t100.5 -27.5zM-24 652v88h755v-88h-121v-652h-106v207q-10 -15 -23 -29h1l-218 -230h-115l160 159h-10q-98 0 -159.5 46.5t-61.5 131.5q0 60 36 99.5
t89 50.5v2q-110 22 -110 147v68h-117z" />
    <glyph glyph-name="dvNG_RA" horiz-adv-x="672" 
d="M594 326q-25 0 -43 17.5t-18 42.5q0 26 17.5 43.5t43.5 17.5t43.5 -17.5t17.5 -43.5q0 -25 -18 -42.5t-43 -17.5zM-24 652v88h720v-88h-227v-182h-179q-105 0 -105 -72t93 -72h45q87 0 146 -41t59 -130q0 -59 -32.5 -100.5t-93.5 -59.5l138 -153h-109l-122 139l-122 -139
h-108l138 154q-70 20 -110.5 67t-41.5 114h104q1 -51 38 -82t103 -31q57 0 88 25.5t31 66.5q0 95 -125 95h-39q-75 0 -130 34.5t-55 115.5q0 74 52 109t129 35h106v107h-391z" />
    <glyph glyph-name="dvC_RA" horiz-adv-x="740" 
d="M-24 652v88h788v-88h-122v-652h-105v193q-19 -29 -43 -47l-182 -192h-114l144 145q-87 2 -144.5 54t-57.5 139q0 98 76 148h-166v83h365v-83h-37q-62 0 -100.5 -36.5t-38.5 -94.5q0 -59 40.5 -93t100.5 -34q70 1 113.5 50t43.5 123v297h-561z" />
    <glyph glyph-name="dvCH_RA" horiz-adv-x="819" 
d="M-24 652v88h867v-88h-210v-110q64 -15 102.5 -68t38.5 -137q0 -117 -69 -196t-191 -105l138 -153h-109l-122 139l-122 -139h-108l131 146q-118 14 -185 69t-67 147q0 65 36 107t94 55v3q-49 9 -79 45t-30 102v95h-115zM400 115q128 0 204.5 60t76.5 166q0 60 -28.5 94
t-68.5 34q-38 0 -65.5 -26.5t-27.5 -78.5q0 -40 16 -88h-87q-17 46 -17 99q0 72 36.5 113.5t96.5 53.5v110h-341v-91q0 -109 117 -109h21v-85h-19q-69 0 -103.5 -31.5t-34.5 -80.5q0 -68 58.5 -104t165.5 -36z" />
    <glyph glyph-name="dvJ_RA" horiz-adv-x="846" 
d="M-24 652v88h894v-88h-122v-652h-98v218l-239 -256h-116l353 363v89h-177v-14q0 -93 -53.5 -151t-146.5 -58q-96 0 -149.5 57.5t-53.5 151.5v99h106v-97q0 -54 26 -86t72 -32q47 0 74 32t27 86v97h275v153h-672z" />
    <glyph glyph-name="dvJH_RA" horiz-adv-x="922" 
d="M276 326h445v326h-255v-182h-179q-106 0 -106 -73q0 -71 95 -71zM724 0v93l-157 -202h-106l263 321v34l-239 1q38 -41 38 -105q0 -67 -44 -109t-126 -42q-106 0 -158 73v-143h-99v250h94q6 -45 40 -73.5t92 -28.5q51 0 77.5 24.5t26.5 61.5q0 45 -32 70.5t-93 25.5h-56
q-71 3 -120 39t-49 108q0 76 52 112t131 36h106v106h-389v88h969v-88h-121v-652h-100z" />
    <glyph glyph-name="dvNY_RA" horiz-adv-x="817" 
d="M-24 652v88h911v-88h-122v-652h-103v134l-199 -216h-108l307 323v55h-145q-10 -88 -70 -142t-158 -54q-96 0 -157 51.5t-67 128.5h99q7 -38 41 -64.5t85 -26.5q64 0 99 40t35 99q0 57 -35 96t-99 39q-51 0 -83.5 -26.5t-42.5 -64.5h-99q9 79 68 129.5t156 50.5
q90 0 148.5 -45.5t75.5 -121.5h147v267h-684z" />
    <glyph glyph-name="dvTT_RA" horiz-adv-x="649" 
d="M-24 652v88h697v-88h-201v-193h-112q-84 0 -137 -43.5t-53 -126.5q0 -71 47 -116.5t121 -45.5q76 0 123 47.5t47 122.5h100q0 -92 -46.5 -157.5t-127.5 -90.5l134 -149h-109l-119 136h-6l-119 -136h-108l134 150q-81 25 -128.5 88.5t-47.5 150.5q0 122 78.5 190.5
t210.5 68.5h15v104h-393z" />
    <glyph glyph-name="dvTTH_RA" horiz-adv-x="676" 
d="M337 130q75 0 122 46.5t47 118.5t-47 117.5t-122 45.5q-74 0 -121 -45.5t-47 -117.5t47.5 -118.5t120.5 -46.5zM462 -102l-122 139l-122 -139h-108l139 156q-84 23 -134 87t-50 154q0 101 61.5 166.5t157.5 81.5v109h-308v88h722v-88h-310v-109q97 -15 159.5 -80.5
t62.5 -167.5q0 -89 -49 -152.5t-131 -87.5l141 -157h-109z" />
    <glyph glyph-name="dvDD_RA" horiz-adv-x="572" 
d="M-24 652v88h619v-88h-131v-182h-174q-105 0 -105 -72t93 -72h45q87 0 146 -41t59 -130q0 -59 -33.5 -101.5t-97.5 -59.5l137 -152h-109l-122 139l-122 -139h-108l139 156q-68 20 -107 66.5t-40 112.5h104q1 -51 38 -82t103 -31q57 0 88 25.5t31 66.5q0 95 -125 95h-39
q-75 0 -130 34.5t-55 115.5q0 74 52 109t129 35h102v107h-387z" />
    <glyph glyph-name="dvDDH_RA" horiz-adv-x="645" 
d="M-24 652v88h693v-88h-178v-173h-101q-100 0 -162 -52t-62 -150q0 -87 56 -142t152 -55q68 0 112 33t44 88q0 39 -24.5 64t-62.5 25q-33 0 -56 -21t-23 -55q0 -12 3 -19h-77q-3 16 -3 33q0 64 45 101t115 37q79 0 126 -45.5t47 -119.5t-45 -124.5t-127 -66.5l134 -149
h-109l-122 139l-122 -139h-108l141 158q-90 27 -143.5 95.5t-53.5 165.5q0 131 81.5 202t211.5 71h34v99h-416z" />
    <glyph glyph-name="dvNN_RA" horiz-adv-x="865" 
d="M288 338q45 0 70.5 30t25.5 78v206h-193v-206q0 -48 26.5 -78t70.5 -30zM-24 652v88h913v-88h-122v-652h-99v233l-252 -269h-120l368 381v307h-177v-197q0 -92 -52 -149t-148 -57q-95 0 -147 57.5t-52 148.5v197h-112z" />
    <glyph glyph-name="dvT_RA" horiz-adv-x="699" 
d="M-24 652v88h747v-88h-122v-652h-101v243l-246 -243h-136v5l376 347q-21 41 -63 66.5t-96 25.5q-71 0 -117.5 -43t-46.5 -119h-105q-1 112 65.5 178.5t177.5 66.5q122 0 189 -90v215h-522z" />
    <glyph glyph-name="dvTH_RA" horiz-adv-x="774" 
d="M571 0v217q-16 -36 -52 -64l3 -1l-266 -224h-129v6l201 163q-119 6 -187.5 79t-68.5 194q0 31 4 58h95q200 0 200 133q0 42 -25.5 70t-68.5 28q-45 0 -71.5 -27.5t-26.5 -74.5q0 -15 4 -41h-95q-4 28 -4 44q0 88 54.5 138.5t139.5 50.5q86 0 138.5 -53t52.5 -138
q0 -100 -69.5 -153t-189.5 -53h-37q2 -77 50 -123.5t139 -46.5q89 0 149 56t60 152v350h227v-88h-122v-652h-105z" />
    <glyph glyph-name="dvD_RA" horiz-adv-x="609" 
d="M-24 652v88h657v-88h-135v-191h-157q-74 0 -121.5 -39t-47.5 -109q0 -64 38 -102t102 -38q51 0 89 32t38 91h97v-317h-103v180q-10 -13 -20 -22h1l-193 -199h-114l155 156q-88 6 -142.5 64.5t-54.5 157.5q0 113 74.5 174t191.5 61h62v101h-417z" />
    <glyph glyph-name="dvDH_RA" horiz-adv-x="718" 
d="M303 94q-96 0 -158 45.5t-62 128.5q0 61 36 99t84 46v3q-54 13 -90.5 55t-36.5 110q0 75 49 121.5t127 46.5q79 0 124.5 -45t45.5 -117q0 -13 -2 -35h-79q1 12 1 23q0 37 -23 61.5t-64 24.5t-65 -26t-24 -65q0 -53 40 -82t105 -29h58v-85h-54q-60 0 -92.5 -25.5
t-32.5 -69.5q0 -49 38 -74.5t100 -25.5q84 0 138.5 54.5t54.5 140.5v366h225v-88h-120v-652h-105v204q-13 -22 -31 -40h1l-218 -230h-115l160 160h-15z" />
    <glyph glyph-name="dvN_RA" horiz-adv-x="835" 
d="M270 192q50 0 81.5 31t31.5 80q0 48 -32 79.5t-81 31.5q-51 0 -83.5 -31.5t-32.5 -80.5t32 -79.5t84 -30.5zM-24 652v88h882v-88h-121v-652h-95v174l-229 -252h-115l338 353v139h-214q45 -52 45 -125q0 -82 -56.5 -134t-142.5 -52q-89 0 -149 54.5t-60 144.5
q0 94 61.5 147t156.5 53h359v150h-660z" />
    <glyph glyph-name="dvP_RA" horiz-adv-x="661" 
d="M323 275q64 0 100 41.5t36 102.5v233h-274v-215q0 -76 34 -119t104 -43zM-24 652v88h709v-88h-122v-652h-104v265q-11 -16 -26 -28l-230 -253h-115l200 207q-102 3 -155 69t-53 177v215h-104z" />
    <glyph glyph-name="dvPH_RA" horiz-adv-x="985" 
d="M313 275q60 0 93.5 40t33.5 99v238h-255v-220q0 -74 32 -115.5t96 -41.5zM-24 652v88h1033v-88h-464v-195q23 43 66.5 68.5t103.5 25.5q91 0 148.5 -63t57.5 -162q0 -108 -58 -170t-150 -62q-37 0 -67 8v82q20 -5 41 -5q56 0 92 38.5t36 103.5q0 62 -37 101t-95 39
q-68 0 -103 -46.5t-35 -113.5v-301h-105v263q-10 -15 -24 -27l-223 -252h-115l196 207q-94 5 -144 70t-50 171v220h-104z" />
    <glyph glyph-name="dvB_RA" horiz-adv-x="688" 
d="M465 143l-193 -199h-112l147 143q-104 1 -173 65.5t-69 169.5q0 107 68.5 173t172.5 66q121 0 184 -93v184h-514v88h736v-88h-121v-652h-101v174q-14 -20 -25 -31zM327 491q-67 0 -113 -40l257 -216q24 41 24 89q0 67 -44.5 117t-123.5 50zM328 158q69 0 113 41l-259 216
q-25 -39 -25 -93q0 -75 49.5 -119.5t121.5 -44.5z" />
    <glyph glyph-name="dvBH_RA" horiz-adv-x="812" 
d="M264 197q46 0 70.5 31.5t24.5 87.5v60h-85q-47 0 -77 -24.5t-30 -66.5q0 -40 27 -64t70 -24zM265 110q-88 0 -141.5 48t-53.5 127q0 84 57 130t146 46h86v85q0 113 -84 113q-37 0 -59 -24.5t-22 -67.5q0 -15 3 -35h-102q-4 26 -4 40q0 80 48 128.5t134 48.5
q94 0 137.5 -59t43.5 -162v-67h179v279h223v-88h-123v-652h-95v174l-251 -252h-116l362 347v107h-179v-54q0 -98 -50 -155t-139 -57z" />
    <glyph glyph-name="dvM_RA" horiz-adv-x="803" 
d="M239 202q46 0 71 32t25 88v71h-86q-47 0 -76.5 -26t-29.5 -70q0 -43 27 -69t69 -26zM604 477v175h-174v-175h174zM-24 652v88h850v-88h-122v-652h-95v175l-252 -253h-116l363 348v123h-174v-66q0 -99 -50 -155t-140 -56q-87 0 -140.5 49.5t-53.5 130.5q0 86 56.5 133.5
t145.5 47.5h87v175h-359z" />
    <glyph glyph-name="dvY_RA" horiz-adv-x="743" 
d="M353 191q81 0 134 50.5t53 129.5v281h-185v-80q0 -182 -187 -193v-4q0 -84 49 -134t136 -50zM-24 652v88h791v-88h-122v-652h-105v201q-15 -22 -33 -37h1l-266 -225h-128v6l198 160q-118 6 -182.5 80.5t-64.5 199.5q0 25 3 51h13q86 0 128 36.5t42 117.5v62h-275z" />
    <glyph glyph-name="dvL_RA" horiz-adv-x="907" 
d="M598 57q-8 0 -34 2v92q20 -2 28 -2q68 0 106 42t38 112q0 63 -31 102.5t-87 39.5q-60 0 -90.5 -44.5t-30.5 -119.5v-18h-88v18q0 74 -29 119t-87 45t-90 -39t-32 -103q0 -70 38 -112t106 -42q8 0 28 2v-92q-26 -2 -34 -2q-116 0 -180 69t-64 179q0 109 60 170.5t154 61.5
q71 0 113.5 -38.5t59.5 -96.5h3q35 114 141 132v118h-620v88h954v-88h-231v-124q66 -20 104.5 -78t38.5 -145q0 -110 -64 -179t-180 -69zM403 -172l160 179h140l161 -179h-109l-122 139l-122 -139h-108z" />
    <glyph glyph-name="dvV_RA" horiz-adv-x="672" 
d="M319 170q73 0 113 45.5t40 103.5v1q0 60 -39.5 105t-113.5 45q-65 0 -108 -41t-43 -108q0 -69 42.5 -110t108.5 -41zM696 652h-122v-652h-102v185q-13 -24 -39 -46l-180 -183h-114l140 136q-97 4 -155.5 67.5t-58.5 164.5q0 102 63 166.5t164 64.5q125 0 180 -94v191
h-496v88h720v-88z" />
    <glyph glyph-name="dvSH_RA" horiz-adv-x="822" 
d="M294 425l21 -11l2 2q44 33 68 66t24 77q0 42 -28.5 72t-76.5 31q-45 0 -74 -29t-31 -69q-3 -85 95 -139zM621 0v158l-72 38l-215 -203h-123v9l261 235l-149 79l-166 -129h-120v13l206 159q-142 85 -142 204q0 80 54.5 133t145.5 53q93 0 148.5 -51.5t55.5 -128.5
q0 -59 -26 -104t-85 -93l211 -112l9 -2l-2 -2l9 -5v489h225v-88h-122v-652h-103z" />
    <glyph glyph-name="dvSS_RA" horiz-adv-x="670" 
d="M324 268q51 0 85.5 24.5t49.5 65.5l-278 214v-138q0 -78 36 -122t107 -44zM469 431v221h-287zM-24 652v88h718v-88h-122v-652h-103v260q-15 -23 -37 -39l-229 -237h-115l204 198q-103 4 -157.5 72.5t-54.5 182.5v215h-104z" />
    <glyph glyph-name="dvS_RA" horiz-adv-x="888" 
d="M431 568q0 -89 -48 -147h306v231h-258v-84zM-24 652v88h936v-88h-122v-652h-92v195l-188 -254h-102l281 358v41h-513v-154q0 -47 22.5 -76t67.5 -29q39 0 61.5 29.5t22.5 76.5v13h91q1 -8 1 -18q0 -88 -46.5 -139.5t-128.5 -51.5q-91 0 -140.5 55.5t-49.5 144.5v220h87
q82 0 122.5 42t40.5 115v84h-351z" />
    <glyph glyph-name="dvH_RA" horiz-adv-x="586" 
d="M532 34q-10 -72 -70.5 -120t-155.5 -48q-110 0 -173 66.5t-63 171.5q0 65 27.5 116.5t77.5 80.5q-81 38 -81 121q0 61 44 94t118 33h116v103h-396v88h633v-88h-137v-179h-180q-94 0 -94 -71q0 -53 58 -71q21 4 50 4q82 0 139 -39t72 -98l-104 -109h-95l105 110
q-37 56 -114 56q-64 0 -102 -44t-38 -111q0 -66 38 -108.5t104 -42.5q51 0 84.5 25.5t44.5 59.5h92z" />
    <glyph glyph-name="dvLL_RA" horiz-adv-x="987" 
d="M305 173q61 0 99 38t38 99q0 62 -38 101t-99 39t-99.5 -39t-38.5 -102q0 -61 39 -98.5t99 -37.5zM681 173q61 0 99.5 37.5t38.5 98.5q0 63 -38.5 102t-98.5 39q-61 0 -99 -39t-38 -101q0 -61 37.5 -99t98.5 -38zM822 -59l-122 139l-122 -139h-108l141 157
q-86 34 -116 118h-4q-21 -60 -74 -96.5t-126 -36.5q-97 0 -161.5 63t-64.5 164q0 103 64.5 166.5t160.5 63.5q142 0 202 -131h3q49 112 164 128v115h-683v88h1034v-88h-249v-120q72 -20 116.5 -79t44.5 -143q0 -75 -36 -130t-98 -80l143 -159h-109z" />
    <glyph glyph-name="dvKx_RA" horiz-adv-x="1042" 
d="M505 0v188q-12 -23 -35 -44l-184 -190h-114l142 143q-86 6 -139.5 67t-53.5 157q0 104 59.5 167t155.5 63q119 0 169 -91v192h-529v88h1090v-88h-460v-194q48 93 164 93q92 0 149.5 -64t57.5 -164q0 -106 -58 -167.5t-150 -61.5q-36 0 -64 7v83q15 -4 38 -4q56 0 92 37.5
t36 103.5q0 62 -37 101t-95 39q-65 0 -98.5 -44t-34.5 -105v-312h-101zM366 176q15 0 30 3l4 4l5 -2q49 13 74.5 52.5t25.5 85.5q0 57 -36 99.5t-103 42.5q-60 0 -99.5 -38.5t-39.5 -102.5q0 -66 39 -105t100 -39zM85 0q-25 0 -42.5 17t-17.5 43t17 43.5t43 17.5t44 -17.5
t18 -43.5q0 -25 -18 -42.5t-44 -17.5z" />
    <glyph glyph-name="dvKHx_RA" horiz-adv-x="941" 
d="M739 0v200q-45 -71 -141 -71q-19 0 -37 3q-17 -30 -35 -51l-206 -222h-112v6l130 135h-1q-119 0 -189 67t-70 186v147h33q67 0 103.5 32.5t36.5 111.5v108h-275v88h989v-88h-122v-652h-104zM99 -131q-25 0 -42.5 17.5t-17.5 42.5q0 26 17 43.5t43 17.5t44 -17.5t18 -43.5
q0 -25 -18 -42.5t-44 -17.5zM619 210q58 0 89 37.5t31 86.5q0 50 -30.5 87t-89.5 37q-52 0 -87.5 -33t-35.5 -89q0 -59 35 -92.5t88 -33.5zM340 87q95 0 140 79q-78 57 -78 170q0 90 55.5 146.5t140.5 56.5q96 0 141 -71v184h-383v-121q0 -103 -47.5 -153t-126.5 -54v-83
q0 -69 42 -111.5t116 -42.5z" />
    <glyph glyph-name="dvGx_RA" horiz-adv-x="765" 
d="M565 0v231l-250 -251h-121l369 359v313h-163v-199q0 -83 -43.5 -135t-132.5 -52q-87 0 -133.5 48.5t-46.5 132.5q0 21 1 31h102v-31q0 -39 17.5 -65t56.5 -26q74 0 74 92v204h-319v88h813v-88h-122v-652h-102zM100 43q-26 0 -43 17.5t-17 42.5q0 26 17 43.5t43 17.5
t44 -17.5t18 -43.5q0 -25 -18 -42.5t-44 -17.5z" />
    <glyph glyph-name="dvJx_RA" horiz-adv-x="846" 
d="M-24 652v88h894v-88h-122v-652h-98v218l-239 -256h-116l353 363v89h-177v-14q0 -93 -53.5 -151t-146.5 -58q-96 0 -149.5 57.5t-53.5 151.5v99h106v-97q0 -54 26 -86t72 -32q47 0 74 32t27 86v97h275v153h-672zM145 -20q-25 0 -42.5 17t-17.5 43t17 43.5t43 17.5
t44 -17.5t18 -43.5q0 -25 -18 -42.5t-44 -17.5z" />
    <glyph glyph-name="dvPHx_RA" horiz-adv-x="1052" 
d="M380 275q60 0 93.5 40t33.5 99v238h-255v-220q0 -74 32 -115.5t96 -41.5zM-24 652v88h1100v-88h-463v-193q52 92 169 92q92 0 149 -63t57 -162q0 -108 -58 -170t-150 -62q-34 0 -68 8v82q23 -5 42 -5q57 0 92.5 38.5t35.5 103.5q0 62 -37 101t-94 39q-68 0 -103 -46.5
t-35 -113.5v-301h-106v263q-8 -13 -25 -28l-222 -251h-115l196 207q-94 5 -144 70t-50 171v220h-171zM85 75q-25 0 -42.5 17.5t-17.5 42.5q0 26 17 43.5t43 17.5t44 -17.5t18 -43.5q0 -25 -18 -42.5t-44 -17.5z" />
    <glyph glyph-name="dvK_R" horiz-adv-x="727" 
d="M449 0v188q-15 -26 -34 -44l-185 -190h-114l141 143q-85 6 -138.5 67t-53.5 157q0 104 59.5 167t155.5 63q119 0 169 -92v193h-473v88h945v-88h-371v-195q48 94 164 94q92 0 149.5 -64.5t57.5 -165.5h-106q0 62 -37.5 101t-94.5 39q-65 0 -98.5 -44t-34.5 -105v-312h-101
zM310 176q16 0 29 3l4 4l6 -2q48 12 74 52t26 86q0 57 -36 99.5t-103 42.5q-59 0 -99 -38.5t-40 -102.5q0 -66 39 -105t100 -39z" />
    <glyph glyph-name="dvKH_R" horiz-adv-x="673" 
d="M-24 652v88h865v-88h-485v-121q0 -103 -47.5 -153t-126.5 -54v-83q0 -69 42 -111.5t116 -42.5q97 0 141 82q-78 58 -78 164q0 94 60.5 149t158.5 55t158.5 -55t60.5 -149q0 -95 -61.5 -150t-157.5 -55q-32 0 -60 6q-16 -30 -36 -53l-206 -222h-112v6l130 135h-1
q-119 0 -189 67t-70 186v147h33q67 0 103.5 32.5t36.5 111.5v108h-275zM622 208q58 0 92.5 34t34.5 91t-34.5 91t-92.5 34q-57 0 -91.5 -34t-34.5 -91t34.5 -91t91.5 -34z" />
    <glyph glyph-name="dvG_R" horiz-adv-x="499" 
d="M584 250l-269 -270h-121l390 379v-109zM-24 652v88h608v-88h-184v-199q0 -83 -43.5 -135t-132.5 -52q-87 0 -133.5 48.5t-46.5 132.5q0 21 1 31h102v-31q0 -39 17.5 -65t56.5 -26q74 0 74 92v204h-319z" />
    <glyph glyph-name="dvGH_R" horiz-adv-x="411" 
d="M-24 652v88h617v-88h-395v-63q0 -109 123 -109h45v-85h-53q-65 0 -97 -27.5t-32 -72.5q0 -52 38.5 -79.5t100.5 -27.5q81 0 131 48t50 123h89q0 -123 -88 -196l-202 -215h-114l155 155q-7 -1 -21 -1q-114 0 -179.5 47t-65.5 136q0 60 36 99.5t89 50.5v2q-110 22 -110 147
v68h-117z" />
    <glyph glyph-name="dvNG_R" horiz-adv-x="672" 
d="M594 326q-25 0 -43 17.5t-18 42.5q0 26 17.5 43.5t43.5 17.5t43.5 -17.5t17.5 -43.5q0 -25 -18 -42.5t-43 -17.5zM383 -382l-124 206h105l127 -206h-108zM-24 652v88h720v-88h-227v-182h-179q-105 0 -105 -72t93 -72h45q87 0 146 -41t59 -130q0 -59 -32.5 -100.5
t-93.5 -59.5l138 -153h-109l-122 139l-122 -139h-108l138 154q-70 20 -110.5 67t-41.5 114h104q1 -51 38 -82t103 -31q57 0 88 25.5t31 66.5q0 95 -125 95h-39q-75 0 -130 34.5t-55 115.5q0 74 52 109t129 35h106v107h-391z" />
    <glyph glyph-name="dvC_R" horiz-adv-x="451" 
d="M-24 652v88h651v-88h-651zM50 440v83h365v-83h-37q-62 0 -100.5 -36.5t-38.5 -94.5q0 -59 40.5 -93t100.5 -34q70 1 113.5 50t43.5 123h90q3 -133 -89 -206l-181 -195h-114l139 140h-12q-101 0 -165.5 52t-64.5 146q0 98 76 148h-166z" />
    <glyph glyph-name="dvCH_R" horiz-adv-x="819" 
d="M-24 652v88h867v-88h-648v-91q0 -109 117 -109h21v-85h-19q-69 0 -103.5 -31.5t-34.5 -80.5q0 -68 58.5 -104t165.5 -36q128 0 204.5 60t76.5 166q0 60 -28.5 94t-68.5 34q-38 0 -65.5 -26.5t-27.5 -78.5q0 -40 16 -88h-87q-17 46 -17 99q0 87 52.5 129.5t129.5 42.5
q83 0 136 -55t53 -155q0 -117 -69 -196t-191 -105l138 -153h-109l-122 139l-122 -139h-108l131 146q-118 14 -185 69t-67 147q0 65 36 107t94 55v3q-49 9 -79 45t-30 102v95h-115z" />
    <glyph glyph-name="dvJ_R" horiz-adv-x="547" 
d="M295 -38l402 414v-106l-286 -308h-116zM-24 652v88h721v-88h-721zM271 191q-96 0 -149.5 57.5t-53.5 151.5v99h106v-97q0 -54 26 -86t72 -32q47 0 74 32t27 86v97h324v-90h-226v-9q0 -93 -53.5 -151t-146.5 -58z" />
    <glyph glyph-name="dvJH_R" horiz-adv-x="567" 
d="M195 64v-143h-99v250h94q6 -45 40 -73.5t92 -28.5q51 0 77.5 24.5t26.5 61.5q0 45 -32 70.5t-93 25.5h-56q-71 3 -120 39t-49 108q0 76 52 112t131 36h106v106h-389v88h746v-88h-256v-182h-179q-106 0 -106 -73q0 -71 95 -71h446v-80l-237 1q38 -41 38 -105
q0 -67 -44 -109t-126 -42q-106 0 -158 73zM722 96l-155 -205h-106l261 312v-107z" />
    <glyph glyph-name="dvNY_R" horiz-adv-x="540" 
d="M289 100q-96 0 -157 51.5t-67 128.5h99q7 -38 41 -64.5t85 -26.5q64 0 99 40t35 99q0 57 -35 96t-99 39q-51 0 -83.5 -26.5t-42.5 -64.5h-99q9 79 68 129.5t156 50.5q90 0 148.5 -45.5t75.5 -121.5h170v-89h-166q-10 -88 -70 -142t-158 -54zM355 -82l328 350v-110
l-220 -240h-108zM-24 652v88h707v-88h-707z" />
    <glyph glyph-name="dvTT_R" horiz-adv-x="649" 
d="M414 -324l-124 206h105l127 -206h-108zM-24 652v88h697v-88h-201v-193h-112q-84 0 -137 -43.5t-53 -126.5q0 -71 47 -116.5t121 -45.5q76 0 123 47.5t47 122.5h100q0 -92 -46.5 -157.5t-127.5 -90.5l134 -149h-109l-119 136h-6l-119 -136h-108l134 150
q-81 25 -128.5 88.5t-47.5 150.5q0 122 78.5 190.5t210.5 68.5h15v104h-393z" />
    <glyph glyph-name="dvTTH_R" horiz-adv-x="676" 
d="M337 130q75 0 122 46.5t47 118.5t-47 117.5t-122 45.5q-74 0 -121 -45.5t-47 -117.5t47.5 -118.5t120.5 -46.5zM462 -102l-122 139l-122 -139h-108l139 156q-84 23 -134 87t-50 154q0 101 61.5 166.5t157.5 81.5v109h-308v88h722v-88h-310v-109q97 -15 159.5 -80.5
t62.5 -167.5q0 -89 -49 -152.5t-131 -87.5l141 -157h-109zM412 -327l-124 206h105l127 -206h-108z" />
    <glyph glyph-name="dvDD_R" horiz-adv-x="572" 
d="M376 -382l-124 206h105l127 -206h-108zM-24 652v88h619v-88h-131v-182h-174q-105 0 -105 -72t93 -72h45q87 0 146 -41t59 -130q0 -59 -33.5 -101.5t-97.5 -59.5l137 -152h-109l-122 139l-122 -139h-108l139 156q-68 20 -107 66.5t-40 112.5h104q1 -51 38 -82t103 -31
q57 0 88 25.5t31 66.5q0 95 -125 95h-39q-75 0 -130 34.5t-55 115.5q0 74 52 109t129 35h102v107h-387z" />
    <glyph glyph-name="dvDDH_R" horiz-adv-x="645" 
d="M429 -363l-124 206h105l127 -206h-108zM-24 652v88h693v-88h-178v-173h-101q-100 0 -162 -52t-62 -150q0 -87 56 -142t152 -55q68 0 112 33t44 88q0 39 -24.5 64t-62.5 25q-33 0 -56 -21t-23 -55q0 -12 3 -19h-77q-3 16 -3 33q0 64 45 101t115 37q79 0 126 -45.5
t47 -119.5t-45 -124.5t-127 -66.5l134 -149h-109l-122 139l-122 -139h-108l141 158q-90 27 -143.5 95.5t-53.5 165.5q0 131 81.5 202t211.5 71h34v99h-416z" />
    <glyph glyph-name="dvNN_R" horiz-adv-x="570" 
d="M296 -36l370 384v-118l-250 -266h-120zM-24 652v88h690v-88h-179v-197q0 -92 -52 -149t-148 -57q-95 0 -147 57.5t-52 148.5v197h-112zM288 338q45 0 70.5 30t25.5 78v206h-193v-206q0 -48 26.5 -78t70.5 -30z" />
    <glyph glyph-name="dvT_R" horiz-adv-x="422" 
d="M66 282q0 110 72.5 178t192.5 68q99 0 170.5 -52t95.5 -139l-343 -337h-136v5l376 347q-20 41 -61.5 66.5t-95.5 25.5q-72 0 -119 -43t-47 -119h-105zM-24 652v88h621v-88h-621z" />
    <glyph glyph-name="dvTH_R" horiz-adv-x="473" 
d="M662 354q0 -125 -96 -198l-276 -236h-130v6l208 168h-4q-137 0 -214.5 73t-77.5 203q0 31 4 58h95q200 0 200 133q0 42 -25.5 70t-68.5 28q-45 0 -71.5 -27.5t-26.5 -74.5q0 -15 4 -41h-95q-4 28 -4 44q0 88 54.5 138.5t139.5 50.5q86 0 138.5 -53t52.5 -138
q0 -100 -69.5 -153t-189.5 -53h-37q2 -77 50 -123.5t139 -46.5q92 0 150.5 46.5t58.5 125.5h91z" />
    <glyph glyph-name="dvD_R" horiz-adv-x="609" 
d="M556 -300l-124 206h105l127 -206h-108zM-24 652v88h657v-88h-135v-191h-157q-74 0 -121.5 -39t-47.5 -109q0 -64 38 -102t102 -38q51 0 89 32t38 91h97v-317h-103v180q-10 -13 -20 -22h1l-193 -199h-114l155 156q-88 6 -142.5 64.5t-54.5 157.5q0 113 74.5 174t191.5 61
h62v101h-417z" />
    <glyph glyph-name="dvDH_R" horiz-adv-x="428" 
d="M324 91q-107 0 -174 45.5t-67 131.5q0 61 36 99t84 46v3q-54 13 -90.5 55t-36.5 110q0 75 49 121.5t127 46.5q79 0 124.5 -45t45.5 -117q0 -13 -2 -35h-79q1 12 1 23q0 37 -23 61.5t-64 24.5t-65 -26t-24 -65q0 -53 40 -82t105 -29h58v-85h-54q-60 0 -92.5 -25.5
t-32.5 -69.5q0 -51 41 -75.5t102 -24.5q88 0 138 41.5t50 109.5h92q0 -106 -77 -172l-208 -224h-115l159 160q-24 -3 -48 -3z" />
    <glyph glyph-name="dvN_R" horiz-adv-x="511" 
d="M268 103q-89 0 -149 54.5t-60 144.5q0 94 61.5 147t156.5 53h391v-88h-246q45 -52 45 -125q0 -86 -56.5 -136t-142.5 -50zM270 192q50 0 81.5 31t31.5 80q0 48 -32 79.5t-81 31.5q-51 0 -83.5 -31.5t-32.5 -80.5t32 -79.5t84 -30.5zM298 -78l370 388v-110l-255 -278h-115
zM-24 652v88h692v-88h-692z" />
    <glyph glyph-name="dvP_R" horiz-adv-x="362" 
d="M-24 652v88h570v-88h-361v-215q0 -76 34.5 -119t104.5 -43q63 0 99 41.5t36 102.5h87q0 -122 -81 -186l-223 -249h-114l195 202h-7q-114 0 -175 68.5t-61 182.5v215h-104z" />
    <glyph glyph-name="dvPH_R" horiz-adv-x="726" 
d="M313 275q60 0 93.5 40t33.5 99v238h-255v-220q0 -74 32 -115.5t96 -41.5zM-24 652v88h945v-88h-376v-195q23 43 66.5 68.5t103.5 25.5q98 0 152 -63t54 -167h-106q0 65 -34 102.5t-98 37.5q-68 0 -103 -46.5t-35 -113.5v-301h-105v263q-10 -15 -24 -27l-223 -252h-115
l196 207q-94 5 -144 70t-50 171v220h-104z" />
    <glyph glyph-name="dvB_R" horiz-adv-x="406" 
d="M-24 652v88h600v-88h-600zM321 81q-114 0 -185 67t-71 174q0 106 70 173t185 67q123 0 188.5 -71t65.5 -167q0 -117 -80 -185l-184 -195h-108l140 138q-7 -1 -21 -1zM323 489q-66 0 -115 -41l258 -217q25 41 25 90q0 67 -44.5 117.5t-123.5 50.5zM324 155q69 0 113 41
l-259 217q-25 -41 -25 -93q0 -75 50 -120t121 -45z" />
    <glyph glyph-name="dvBH_R" horiz-adv-x="519" 
d="M264 197q46 0 70.5 31.5t24.5 87.5v60h-85q-47 0 -77 -24.5t-30 -66.5q0 -40 27 -64t70 -24zM265 110q-88 0 -141.5 48t-53.5 127q0 84 57 130t146 46h86v85q0 113 -84 113q-37 0 -59 -24.5t-22 -67.5q0 -15 3 -35h-102q-4 26 -4 40q0 80 48 128.5t134 48.5
q94 0 137.5 -59t43.5 -162v-67h201v-85h-201v-54q0 -98 -50 -155t-139 -57zM271 -78l384 367v-97l-268 -270h-116z" />
    <glyph glyph-name="dvM_R" horiz-adv-x="513" 
d="M239 202q46 0 71 32t25 88v71h-86q-47 0 -76.5 -26t-29.5 -70q0 -43 27 -69t69 -26zM241 -78l408 390v-97l-292 -293h-116zM-24 652v88h675v-88h-221v-175h220v-84h-220v-66q0 -99 -50 -155t-140 -56q-87 0 -140.5 49.5t-53.5 130.5q0 86 56.5 133.5t145.5 47.5h87v175
h-359z" />
    <glyph glyph-name="dvY_R" horiz-adv-x="441" 
d="M-24 652v88h660v-88h-281v-80q0 -182 -187 -193v-4q0 -86 51.5 -135t136.5 -49q80 0 132 47t52 120h96q2 -126 -98 -200l-259 -219h-128v6l195 157q-131 1 -206 76.5t-75 206.5q0 25 3 51h13q86 0 128 36.5t42 117.5v62h-275z" />
    <glyph glyph-name="dvL_R" horiz-adv-x="907" 
d="M598 57q-8 0 -34 2v92q20 -2 28 -2q68 0 106 42t38 112q0 63 -31 102.5t-87 39.5q-60 0 -90.5 -44.5t-30.5 -119.5v-18h-88v18q0 74 -29 119t-87 45t-90 -39t-32 -103q0 -70 38 -112t106 -42q8 0 28 2v-92q-26 -2 -34 -2q-116 0 -180 69t-64 179q0 109 60 170.5t154 61.5
q71 0 113.5 -38.5t59.5 -96.5h3q35 114 141 132v118h-620v88h954v-88h-231v-124q66 -20 104.5 -78t38.5 -145q0 -110 -64 -179t-180 -69zM403 -172l160 179h140l161 -179h-109l-122 139l-122 -139h-108zM704 -396l-124 206h105l127 -206h-108z" />
    <glyph glyph-name="dvV_R" horiz-adv-x="384" 
d="M321 170q73 0 112 45.5t39 104.5q0 61 -39 105.5t-112 44.5q-66 0 -109.5 -41t-43.5 -108q0 -69 43 -110t110 -41zM319 86q-116 0 -185 65.5t-69 172.5q0 103 70 167t184 64q124 0 189.5 -70t65.5 -166q0 -103 -74 -170l-191 -204h-112l144 142q-7 -1 -22 -1zM-24 652v88
h598v-88h-598z" />
    <glyph glyph-name="dvSH_R" horiz-adv-x="505" 
d="M294 425l21 -11l2 2q44 34 68 66.5t24 76.5q0 42 -28.5 72t-76.5 31q-45 0 -74 -29t-31 -69q-3 -85 95 -139zM37 187v13l206 159q-142 86 -142 204q0 80 54.5 133t145.5 53q93 0 148.5 -51.5t55.5 -128.5q0 -59 -26 -104t-84 -93l156 -82v-93l-217 -204h-126v7l265 238
l-150 78l-166 -129h-120z" />
    <glyph glyph-name="dvSS_R" horiz-adv-x="386" 
d="M326 268q54 0 89 25.5t46 63.5l-280 217v-140q0 -166 145 -166zM-24 652v88h579v-88h-373l373 -283q0 -75 -60 -129l-248 -256h-114l200 195h-11q-118 0 -180 70t-62 188v215h-104z" />
    <glyph glyph-name="dvS_R" horiz-adv-x="520" 
d="M408 -59l241 305v-116l-139 -189h-102zM-24 652v88h673v-88h-218v-84q0 -89 -48 -147h266v-81h-473v-154q0 -47 22.5 -76t67.5 -29q39 0 61.5 29.5t22.5 76.5v13h91q1 -8 1 -18q0 -88 -46.5 -139.5t-128.5 -51.5q-91 0 -140.5 55.5t-49.5 144.5v220h87q82 0 122.5 42
t40.5 115v84h-351z" />
    <glyph glyph-name="dvH_R" horiz-adv-x="586" 
d="M532 34q-10 -72 -70.5 -120t-155.5 -48q-110 0 -173 66.5t-63 171.5q0 65 27.5 116.5t77.5 80.5q-81 38 -81 121q0 61 44 94t118 33h116v103h-396v88h633v-88h-137v-179h-180q-94 0 -94 -71q0 -53 58 -71q21 4 50 4q82 0 139 -39t72 -98l-104 -109h-95l105 110
q-37 56 -114 56q-64 0 -102 -44t-38 -111q0 -66 38 -108.5t104 -42.5q51 0 84.5 25.5t44.5 59.5h92zM375 -413l-124 206h105l127 -206h-108z" />
    <glyph glyph-name="dvLL_R" horiz-adv-x="987" 
d="M291 83q-97 0 -161.5 63t-64.5 164q0 103 64.5 166.5t160.5 63.5q142 0 202 -131h3q27 61 78.5 96t122.5 35q97 0 161.5 -63.5t64.5 -166.5q0 -75 -36 -130t-98 -80l143 -159h-109l-122 139l-122 -139h-108l141 157q-86 34 -116 118h-4q-21 -60 -74 -96.5t-126 -36.5z
M305 173q61 0 99 38t38 99q0 62 -38 101t-99 39t-99.5 -39t-38.5 -102q0 -61 39 -98.5t99 -37.5zM681 173q61 0 99.5 37.5t38.5 98.5q0 63 -38.5 102t-98.5 39q-61 0 -99 -39t-38 -101q0 -61 37.5 -99t98.5 -38zM-24 652v88h1034v-88h-1034z" />
    <glyph glyph-name="dvKx_R" horiz-adv-x="783" 
d="M505 0v188q-12 -23 -35 -44l-184 -190h-114l142 143q-86 6 -139.5 67t-53.5 157q0 104 59.5 167t155.5 63q119 0 169 -91v192h-529v88h1001v-88h-371v-194q48 93 164 93q92 0 149.5 -64.5t57.5 -165.5h-106q0 62 -37 101t-95 39q-65 0 -98.5 -44t-34.5 -105v-312h-101z
M366 176q15 0 30 3l4 4l5 -2q49 13 74.5 52.5t25.5 85.5q0 57 -36 99.5t-103 42.5q-60 0 -99.5 -38.5t-39.5 -102.5q0 -66 39 -105t100 -39zM85 0q-25 0 -42.5 17t-17.5 43t17 43.5t43 17.5t44 -17.5t18 -43.5q0 -25 -18 -42.5t-44 -17.5z" />
    <glyph glyph-name="dvKHx_R" horiz-adv-x="673" 
d="M-24 652v88h865v-88h-485v-121q0 -103 -47.5 -153t-126.5 -54v-83q0 -69 42 -111.5t116 -42.5q97 0 141 82q-78 58 -78 164q0 94 60.5 149t158.5 55t158.5 -55t60.5 -149q0 -95 -61.5 -150t-157.5 -55q-32 0 -60 6q-16 -30 -36 -53l-206 -222h-112v6l130 135h-1
q-119 0 -189 67t-70 186v147h33q67 0 103.5 32.5t36.5 111.5v108h-275zM99 -131q-25 0 -42.5 17.5t-17.5 42.5q0 26 17 43.5t43 17.5t44 -17.5t18 -43.5q0 -25 -18 -42.5t-44 -17.5zM622 208q58 0 92.5 34t34.5 91t-34.5 91t-92.5 34q-57 0 -91.5 -34t-34.5 -91t34.5 -91
t91.5 -34z" />
    <glyph glyph-name="dvGx_R" horiz-adv-x="499" 
d="M584 250l-269 -270h-121l390 379v-109zM-24 652v88h608v-88h-184v-199q0 -83 -43.5 -135t-132.5 -52q-87 0 -133.5 48.5t-46.5 132.5q0 21 1 31h102v-31q0 -39 17.5 -65t56.5 -26q74 0 74 92v204h-319zM100 43q-26 0 -43 17.5t-17 42.5q0 26 17 43.5t43 17.5t44 -17.5
t18 -43.5q0 -25 -18 -42.5t-44 -17.5z" />
    <glyph glyph-name="dvJx_R" horiz-adv-x="547" 
d="M295 -38l402 414v-106l-286 -308h-116zM-24 652v88h721v-88h-721zM271 191q-96 0 -149.5 57.5t-53.5 151.5v99h106v-97q0 -54 26 -86t72 -32q47 0 74 32t27 86v97h324v-90h-226v-9q0 -93 -53.5 -151t-146.5 -58zM145 -20q-25 0 -42.5 17t-17.5 43t17 43.5t43 17.5
t44 -17.5t18 -43.5q0 -25 -18 -42.5t-44 -17.5z" />
    <glyph glyph-name="dvPHx_R" horiz-adv-x="794" 
d="M380 275q60 0 93.5 40t33.5 99v238h-255v-220q0 -74 32 -115.5t96 -41.5zM-24 652v88h1012v-88h-375v-193q52 92 169 92q98 0 152 -63t54 -167h-106q0 64 -34 102t-97 38q-68 0 -103 -46.5t-35 -113.5v-301h-106v263q-8 -13 -25 -28l-222 -251h-115l196 207
q-94 5 -144 70t-50 171v220h-171zM85 75q-25 0 -42.5 17.5t-17.5 42.5q0 26 17 43.5t43 17.5t44 -17.5t18 -43.5q0 -25 -18 -42.5t-44 -17.5z" />
    <glyph glyph-name="dvK_KA" horiz-adv-x="1725" 
d="M310 176q66 0 102.5 43.5t36.5 99.5q0 57 -36 99.5t-103 42.5q-59 0 -99 -38.5t-40 -102.5q0 -66 39 -105t100 -39zM1188 652h-638v-192q46 91 159 91q95 0 150 -68q60 68 160 68q119 0 169 -92v193zM1188 0v183q-50 -95 -173 -95q-95 0 -153 64t-58 169q0 63 -35 101.5
t-91 38.5q-65 0 -96.5 -43.5t-31.5 -105.5v-312h-101v183q-50 -95 -173 -95q-95 0 -153 64t-58 169q0 104 59.5 167t155.5 63q119 0 169 -92v193h-473v88h1772v-88h-459v-195q48 94 164 94q92 0 149.5 -64t57.5 -164q0 -106 -58 -167.5t-150 -61.5q-36 0 -64 7v83
q15 -4 37 -4q56 0 92.5 37.5t36.5 103.5q0 62 -37.5 101t-94.5 39q-66 0 -99.5 -44t-33.5 -105v-312h-101zM1049 176q66 0 102.5 43.5t36.5 99.5q0 57 -36 99.5t-103 42.5q-59 0 -99 -38.5t-40 -102.5q0 -66 39 -105t100 -39z" />
    <glyph glyph-name="dvKx_KxA" horiz-adv-x="1725" 
d="M260 -118q-28 0 -47 18.5t-19 46.5t19 47.5t47 19.5t47.5 -19t19.5 -48q0 -28 -19 -46.5t-48 -18.5zM999 -118q-28 0 -47 18.5t-19 46.5t19 47.5t47 19.5q29 0 48 -19t19 -48q0 -28 -19 -46.5t-48 -18.5zM310 176q66 0 102.5 43.5t36.5 99.5q0 57 -36 99.5t-103 42.5
q-59 0 -99 -38.5t-40 -102.5q0 -66 39 -105t100 -39zM1049 176q66 0 102.5 43.5t36.5 99.5q0 57 -36 99.5t-103 42.5q-59 0 -99 -38.5t-40 -102.5q0 -66 39 -105t100 -39zM1188 652h-638v-192q46 91 159 91q95 0 144 -75q59 75 166 75q119 0 169 -92v193zM1188 0v183
q-50 -95 -173 -95q-95 0 -153 64t-58 169q0 63 -35 101.5t-91 38.5q-65 0 -96.5 -43.5t-31.5 -105.5v-312h-101v183q-50 -95 -173 -95q-95 0 -153 64t-58 169q0 104 59.5 167t155.5 63q119 0 169 -92v193h-473v88h1772v-88h-459v-195q48 94 164 94q92 0 149.5 -64t57.5 -164
q0 -106 -58 -167.5t-150 -61.5q-36 0 -64 7v83q15 -4 37 -4q56 0 92.5 37.5t36.5 103.5q0 62 -37.5 101t-94.5 39q-66 0 -99.5 -44t-33.5 -105v-312h-101z" />
    <glyph glyph-name="dvK_KHA" horiz-adv-x="1667" 
d="M709 546q69 0 115.5 -37.5t65.5 -102.5q86 23 86 138v108h-426v-195q47 89 159 89zM310 176q66 0 102.5 43.5t36.5 99.5q0 57 -36 99.5t-103 42.5q-59 0 -99 -38.5t-40 -102.5q0 -66 39 -105t100 -39zM1464 0v199q-46 -70 -141 -70q-19 0 -35 3q-32 -61 -89.5 -98.5
t-135.5 -37.5q-119 0 -189 66.5t-70 180.5v78q0 63 -35 101.5t-91 38.5q-65 0 -96.5 -43.5t-31.5 -105.5v-312h-101v183q-50 -95 -173 -95q-95 0 -153 64t-58 169q0 104 59.5 167t155.5 63q119 0 169 -92v193h-473v88h1714v-88h-122v-652h-104zM1345 210q57 0 88 37.5
t31 86.5q0 50 -30 87t-89 37q-52 0 -87.5 -33t-35.5 -89q0 -59 34.5 -92.5t88.5 -33.5zM1065 87q97 0 140 79q-78 58 -78 170q0 90 55.5 146.5t140.5 56.5q96 0 141 -71v184h-383v-121q0 -103 -47 -153t-126 -54v-83q0 -69 42 -111.5t115 -42.5z" />
    <glyph glyph-name="dvK_CA" horiz-adv-x="1362" 
d="M1001 182q71 1 114.5 50t43.5 123v297h-609v-208q47 87 176 87h311v-84h-37q-63 0 -101 -37t-38 -97q0 -62 40 -96.5t100 -34.5zM310 176q66 0 102.5 43.5t36.5 99.5q0 57 -36 99.5t-103 42.5q-59 0 -99 -38.5t-40 -102.5q0 -66 39 -105t100 -39zM550 304v-304h-101v183
q-50 -95 -173 -95q-95 0 -153 64t-58 169q0 104 59.5 167t155.5 63q119 0 169 -92v193h-473v88h1410v-88h-122v-652h-105v191q-61 -96 -187 -96q-91 0 -150.5 50t-59.5 142q0 110 89 160h-155q-75 0 -110.5 -41t-35.5 -102z" />
    <glyph glyph-name="dvK_JA" horiz-adv-x="1580" 
d="M310 176q66 0 102.5 43.5t36.5 99.5q0 57 -36 99.5t-103 42.5q-59 0 -99 -38.5t-40 -102.5q0 -66 39 -105t100 -39zM1006 214q47 0 73.5 32t26.5 86v164h271v156h-827v-192q46 91 159 91q91 0 145 -58.5t54 -146.5v-14q0 -54 26 -86t72 -32zM550 312v-312h-101v183
q-50 -95 -173 -95q-95 0 -153 64t-58 169q0 104 59.5 167t155.5 63q119 0 169 -92v193h-473v88h1628v-88h-122v-652h-105v406h-168v-76q0 -93 -55 -150.5t-149 -57.5q-95 0 -148 54.5t-53 136.5v11q0 62 -35 99.5t-91 37.5q-65 0 -96.5 -43.5t-31.5 -105.5z" />
    <glyph glyph-name="dvK_TTA" horiz-adv-x="1386" 
d="M550 652v-192q46 91 159 91q104 0 159 -84q78 81 223 81h15v104h-556zM310 176q66 0 102.5 43.5t36.5 99.5q0 57 -36 99.5t-103 42.5q-59 0 -99 -38.5t-40 -102.5q0 -66 39 -105t100 -39zM550 312v-312h-101v183q-50 -95 -173 -95q-95 0 -153 64t-58 169q0 104 59.5 167
t155.5 63q119 0 169 -92v193h-473v88h1434v-88h-201v-193h-112q-84 0 -137 -43.5t-53 -126.5q0 -71 47 -116.5t121 -45.5q76 0 123 47.5t47 122.5h100q0 -117 -73.5 -189t-194.5 -72t-198 70t-77 183q0 12 2 36q-2 62 -36.5 99t-89.5 37q-65 0 -96.5 -43.5t-31.5 -105.5z
" />
    <glyph glyph-name="dvK_NNA" horiz-adv-x="1578" 
d="M550 652v-196q46 86 156 86q52 0 92 -23v133h-248zM310 176q66 0 102.5 43.5t36.5 99.5q0 57 -36 99.5t-103 42.5q-59 0 -99 -38.5t-40 -102.5q0 -66 39 -105t100 -39zM998 261q45 0 70.5 29.5t25.5 77.5v284h-193v-284q0 -48 26.5 -77.5t70.5 -29.5zM550 312v-312h-101
v183q-50 -95 -173 -95q-95 0 -153 64t-58 169q0 104 59.5 167t155.5 63q119 0 169 -92v193h-473v88h1625v-88h-122v-652h-105v652h-177v-274q0 -92 -52 -149t-148 -57q-93 0 -145 55.5t-54 143.5q-11 41 -43.5 65.5t-76.5 24.5q-65 0 -96.5 -43.5t-31.5 -105.5z" />
    <glyph glyph-name="dvK_TA" horiz-adv-x="1092" 
d="M-24 652v88h1140v-88h-479v-256q52 95 177 95q94 0 154 -65t60 -167q0 -110 -61 -173t-159 -63q-40 0 -69 7v83q20 -4 43 -4q62 0 100.5 39.5t38.5 108.5q0 64 -38.5 104t-97.5 40q-73 0 -110.5 -44t-37.5 -102v-255h-101v395h-126q-86 0 -135.5 -39.5t-49.5 -115.5
q0 -73 44 -114t126 -41h20v-83h-36q-115 0 -186.5 60.5t-71.5 168.5q0 109 74 166h-157v88h498v167h-560z" />
    <glyph glyph-name="dvKx_TA" horiz-adv-x="1415" 
d="M701 543q58 0 100.5 -27t62.5 -79q75 59 203 59h145v156h-662v-193q44 84 151 84zM260 -118q-28 0 -47 18.5t-19 46.5t19 47.5t47 19.5t47.5 -19t19.5 -48q0 -28 -19 -46.5t-48 -18.5zM310 176q66 0 102.5 43.5t36.5 99.5q0 57 -36 99.5t-103 42.5q-59 0 -99 -38.5
t-40 -102.5q0 -66 39 -105t100 -39zM550 312v-312h-101v183q-50 -95 -173 -95q-95 0 -153 64t-58 169q0 104 59.5 167t155.5 63q119 0 169 -92v193h-473v88h1463v-88h-122v-652h-105v406h-140q-86 0 -135 -41t-49 -119q0 -76 43.5 -118.5t125.5 -42.5h21v-83h-36
q-118 0 -189 62.5t-71 183.5q0 31 4 52q4 77 -28.5 117.5t-85.5 40.5q-63 0 -92.5 -42.5t-29.5 -103.5z" />
    <glyph glyph-name="dvK_T_YA" horiz-adv-x="1849" 
d="M692 543q113 0 150 -106q66 75 199 75q132 0 190 -73q127 15 127 151v62h-808v-190q42 81 142 81zM310 176q66 0 102.5 43.5t36.5 99.5q0 57 -36 99.5t-103 42.5q-59 0 -99 -38.5t-40 -102.5q0 -66 39 -105t100 -39zM1459 191q82 0 135 50.5t53 129.5v281h-186v-80
q0 -91 -49 -141.5t-137 -55.5v-11q0 -79 48.5 -126t135.5 -47zM550 312v-312h-101v183q-50 -95 -173 -95q-95 0 -153 64t-58 169q0 104 59.5 167t155.5 63q119 0 169 -92v193h-473v88h1897v-88h-122v-652h-104v200q-66 -97 -209 -97q-122 0 -192 68.5t-75 186.5
q-24 64 -124 64q-75 0 -115.5 -40.5t-40.5 -119.5q0 -76 43.5 -118.5t125.5 -42.5h21v-83h-36q-118 0 -189 63t-71 184q0 14 1 21h-1q6 86 -25.5 129t-87.5 43q-63 0 -92.5 -42.5t-29.5 -103.5z" />
    <glyph glyph-name="dvK_T_RA" horiz-adv-x="1443" 
d="M1241 437v215h-691v-193q47 92 158 92q106 0 159 -98q68 74 185 74q122 0 189 -90zM310 176q66 0 102.5 43.5t36.5 99.5q0 57 -36 99.5t-103 42.5q-59 0 -99 -38.5t-40 -102.5q0 -66 39 -105t100 -39zM550 312v-312h-101v183q-50 -95 -173 -95q-95 0 -153 64t-58 169
q0 104 59.5 167t155.5 63q119 0 169 -92v193h-473v88h1490v-88h-122v-652h-101v243l-246 -243h-136v5l376 347q-21 41 -63 66.5t-96 25.5q-71 0 -117.5 -43t-46.5 -119h-105v6q-1 84 -37 128.5t-93 44.5q-64 0 -96.5 -44t-32.5 -105z" />
    <glyph glyph-name="dvK_T_VA" horiz-adv-x="1781" 
d="M696 543q54 0 93.5 -32t55.5 -94q76 79 225 79h172q64 59 159 59q125 0 180 -94v191h-1031v-191q44 82 146 82zM310 176q66 0 102.5 43.5t36.5 99.5q0 57 -36 99.5t-103 42.5q-59 0 -99 -38.5t-40 -102.5q0 -66 39 -105t100 -39zM1428 170q73 0 113 45.5t40 103.5v1
q0 60 -39.5 105t-113.5 45q-65 0 -108 -41t-43 -108q0 -69 42.5 -110t108.5 -41zM1805 652h-122v-652h-102v181q-55 -95 -180 -95q-102 0 -164.5 65.5t-62.5 172.5q0 45 12 82h-111q-86 0 -135 -41t-49 -119q0 -76 43.5 -118.5t125.5 -42.5h21v-83h-36q-118 0 -189 62.5
t-71 183.5v17q6 97 -24.5 145t-88.5 48q-63 0 -92.5 -42.5t-29.5 -103.5v-312h-101v183q-50 -95 -173 -95q-95 0 -153 64t-58 169q0 104 59.5 167t155.5 63q119 0 169 -92v193h-473v88h1829v-88z" />
    <glyph glyph-name="dvK_THA" horiz-adv-x="1502" 
d="M310 176q66 0 102.5 43.5t36.5 99.5q0 57 -36 99.5t-103 42.5q-59 0 -99 -38.5t-40 -102.5q0 -66 39 -105t100 -39zM709 546q63 0 109 -32t65 -86h16q200 0 200 133q0 42 -25.5 70t-68.5 28q-22 0 -39 -6v-1h-416v-195q47 89 159 89zM1300 0v217q-23 -51 -81.5 -87
t-143.5 -36q-125 0 -199 72.5t-76 196.5q-9 44 -42.5 71t-79.5 27q-65 0 -96.5 -43.5t-31.5 -105.5v-312h-101v183q-50 -95 -173 -95q-95 0 -153 64t-58 169q0 104 59.5 167t155.5 63q119 0 169 -92v193h-473v88h970q27 9 60 9q86 0 139 -53t53 -138q0 -100 -70 -153
t-190 -53h-37q2 -77 50 -123.5t140 -46.5q89 0 149 56t60 152v350h226v-90h-121v-650h-105z" />
    <glyph glyph-name="dvK_DA" horiz-adv-x="1348" 
d="M550 652v-192q46 91 159 91q99 0 155 -75q72 75 206 75h62v101h-582zM310 176q66 0 102.5 43.5t36.5 99.5q0 57 -36 99.5t-103 42.5q-59 0 -99 -38.5t-40 -102.5q0 -66 39 -105t100 -39zM1275 -21h-103v178q-47 -68 -150 -68q-96 0 -157 60t-61 167v5q0 63 -35 101.5
t-91 38.5q-65 0 -96.5 -43.5t-31.5 -105.5v-312h-101v183q-50 -95 -173 -95q-95 0 -153 64t-58 169q0 104 59.5 167t155.5 63q119 0 169 -92v193h-473v88h1396v-88h-135v-191h-157q-74 0 -121.5 -39t-47.5 -109q0 -64 38 -102t102 -38q51 0 89 32t38 91h97v-317z" />
    <glyph glyph-name="dvK_NA" horiz-adv-x="1543" 
d="M709 551q115 0 161 -96q59 47 150 47h319v150h-789v-192q46 91 159 91zM1013 192q50 0 81.5 31t31.5 80q0 48 -32 79.5t-81 31.5q-51 0 -83.5 -31.5t-32.5 -80.5t32 -79.5t84 -30.5zM310 176q66 0 102.5 43.5t36.5 99.5q0 57 -36 99.5t-103 42.5q-59 0 -99 -38.5
t-40 -102.5q0 -66 39 -105t100 -39zM550 312v-312h-101v183q-50 -95 -173 -95q-95 0 -153 64t-58 169q0 104 59.5 167t155.5 63q119 0 169 -92v193h-473v88h1590v-88h-122v-652h-105v414h-174q45 -52 45 -125q0 -86 -56.5 -136t-142.5 -50q-89 0 -149 54.5t-60 144.5
q0 11 2 29q-3 59 -37.5 94.5t-88.5 35.5q-65 0 -96.5 -43.5t-31.5 -105.5z" />
    <glyph glyph-name="dvK_PA" horiz-adv-x="1356" 
d="M550 652v-192q45 86 153 86q42 0 72 -13v119h-225zM310 176q66 0 102.5 43.5t36.5 99.5q0 57 -36 99.5t-103 42.5q-59 0 -99 -38.5t-40 -102.5q0 -66 39 -105t100 -39zM1018 275q64 0 100 41.5t36 102.5v233h-274v-215q0 -76 34 -119t104 -43zM550 312v-312h-101v183
q-50 -95 -173 -95q-95 0 -153 64t-58 169q0 104 59.5 167t155.5 63q119 0 169 -92v193h-473v88h1404v-88h-122v-652h-104v262q-52 -76 -162 -76q-89 0 -142.5 48.5t-68.5 134.5q-11 43 -40 67.5t-69 24.5q-62 0 -92 -43.5t-30 -105.5z" />
    <glyph glyph-name="dvK_P_RA" horiz-adv-x="1356" 
d="M550 652v-192q45 86 153 86q42 0 72 -13v119h-225zM310 176q66 0 102.5 43.5t36.5 99.5q0 57 -36 99.5t-103 42.5q-59 0 -99 -38.5t-40 -102.5q0 -66 39 -105t100 -39zM1018 275q64 0 100 41.5t36 102.5v233h-274v-215q0 -76 34 -119t104 -43zM1154 0v265
q-11 -16 -26 -28l-230 -253h-115l200 207q-86 3 -138 52t-65 133q-12 40 -40.5 62.5t-67.5 22.5q-62 0 -92 -43.5t-30 -105.5v-312h-101v183q-50 -95 -173 -95q-95 0 -153 64t-58 169q0 104 59.5 167t155.5 63q119 0 169 -92v193h-473v88h1404v-88h-122v-652h-104z" />
    <glyph glyph-name="dvK_PHA" horiz-adv-x="1697" 
d="M550 652v-193q46 87 159 87q44 0 82 -16v122h-241zM310 176q66 0 102.5 43.5t36.5 99.5q0 57 -36 99.5t-103 42.5q-59 0 -99 -38.5t-40 -102.5q0 -66 39 -105t100 -39zM1024 275q60 0 93.5 40t33.5 99v238h-255v-220q0 -74 32 -115.5t96 -41.5zM550 312v-312h-101v183
q-50 -95 -173 -95q-95 0 -153 64t-58 169q0 104 59.5 167t155.5 63q119 0 169 -92v193h-473v88h1744v-88h-464v-195q23 43 66.5 68.5t103.5 25.5q91 0 148.5 -63t57.5 -162q0 -108 -58 -170t-150 -62q-37 0 -67 8v82q20 -5 41 -5q56 0 92 38.5t36 103.5q0 62 -37 101t-95 39
q-68 0 -103 -46.5t-35 -113.5v-301h-105v260q-50 -74 -152 -74q-88 0 -140.5 51.5t-64.5 141.5q-14 38 -44.5 60t-71.5 22q-65 0 -96.5 -43.5t-31.5 -105.5z" />
    <glyph glyph-name="dvKx_PHA" horiz-adv-x="1697" 
d="M550 652v-193q46 87 159 87q44 0 82 -16v122h-241zM1024 275q60 0 93.5 40t33.5 99v238h-255v-220q0 -74 32 -115.5t96 -41.5zM550 312v-312h-101v183q-50 -95 -173 -95q-95 0 -153 64t-58 169q0 104 59.5 167t155.5 63q119 0 169 -92v193h-473v88h1744v-88h-464v-195
q23 43 66.5 68.5t103.5 25.5q91 0 148.5 -63t57.5 -162q0 -108 -58 -170t-150 -62q-37 0 -67 8v82q20 -5 41 -5q56 0 92 38.5t36 103.5q0 62 -37 101t-95 39q-68 0 -103 -46.5t-35 -113.5v-301h-105v260q-50 -74 -152 -74q-88 0 -140.5 51.5t-64.5 141.5q-14 38 -44.5 60
t-71.5 22q-65 0 -96.5 -43.5t-31.5 -105.5zM260 -118q-28 0 -47 18.5t-19 46.5t19 47.5t47 19.5t47.5 -19t19.5 -48q0 -28 -19 -46.5t-48 -18.5zM310 176q66 0 102.5 43.5t36.5 99.5q0 57 -36 99.5t-103 42.5q-59 0 -99 -38.5t-40 -102.5q0 -66 39 -105t100 -39z" />
    <glyph glyph-name="dvKx_PHxA" horiz-adv-x="1698" 
d="M550 652v-193q46 87 159 87q46 0 83 -17v123h-242zM260 -118q-28 0 -47 18.5t-19 46.5t19 47.5t47 19.5t47.5 -19t19.5 -48q0 -28 -19 -46.5t-48 -18.5zM962 -15q-28 0 -47 18.5t-19 46.5t19 47.5t47 19.5t47.5 -19.5t19.5 -47.5t-19 -46.5t-48 -18.5zM310 176
q66 0 102.5 43.5t36.5 99.5q0 57 -36 99.5t-103 42.5q-59 0 -99 -38.5t-40 -102.5q0 -66 39 -105t100 -39zM1025 275q60 0 93.5 40t33.5 99v238h-255v-220q0 -74 32 -115.5t96 -41.5zM550 312v-312h-101v183q-50 -95 -173 -95q-95 0 -153 64t-58 169q0 104 59.5 167
t155.5 63q119 0 169 -92v193h-473v88h1745v-88h-464v-195q23 43 66.5 68.5t103.5 25.5q91 0 148.5 -63t57.5 -162q0 -108 -58 -170t-150 -62q-37 0 -67 8v82q20 -5 41 -5q56 0 92 38.5t36 103.5q0 62 -37 101t-95 39q-68 0 -103 -46.5t-35 -113.5v-301h-105v260
q-50 -74 -152 -74q-87 0 -139 50t-65 138q-13 40 -44.5 63.5t-73.5 23.5q-65 0 -96.5 -43.5t-31.5 -105.5z" />
    <glyph glyph-name="dvKx_BA" horiz-adv-x="1427" 
d="M550 652v-192q46 91 159 91q96 0 145 -76q70 86 191 86t184 -93v184h-679zM1229 0v175q-25 -42 -72 -67.5t-110 -25.5q-104 0 -173.5 66.5t-69.5 172.5q0 63 -35 101.5t-91 38.5q-65 0 -96.5 -43.5t-31.5 -105.5v-312h-101v183q-50 -95 -173 -95q-95 0 -153 64t-58 169
q0 104 59.5 167t155.5 63q119 0 169 -92v193h-473v88h1475v-88h-121v-652h-101zM260 -118q-28 0 -47 18.5t-19 46.5t19 47.5t47 19.5t47.5 -19t19.5 -48q0 -28 -19 -46.5t-48 -18.5zM310 176q66 0 102.5 43.5t36.5 99.5q0 57 -36 99.5t-103 42.5q-59 0 -99 -38.5t-40 -102.5
q0 -66 39 -105t100 -39zM1066 491q-67 0 -113 -40l257 -216q24 40 24 89q0 67 -44.5 117t-123.5 50zM1067 158q69 0 113 41l-259 216q-25 -39 -25 -93q0 -75 49.5 -119.5t121.5 -44.5z" />
    <glyph glyph-name="dvK_MA" horiz-adv-x="1552" 
d="M709 546q127 0 173 -116q48 27 115 27h86v195h-533v-194q47 88 159 88zM310 176q66 0 102.5 43.5t36.5 99.5q0 57 -36 99.5t-103 42.5q-59 0 -99 -38.5t-40 -102.5q0 -66 39 -105t100 -39zM988 178q45 0 70 31.5t25 87.5v74h-83q-48 0 -78 -26t-30 -71q0 -44 27 -70
t69 -26zM1348 457v195h-167v-195h167zM550 312v-312h-101v183q-50 -95 -173 -95q-95 0 -153 64t-58 169q0 104 59.5 167t155.5 63q119 0 169 -92v193h-473v88h1599v-88h-122v-652h-105v371h-167v-69q0 -102 -49.5 -157.5t-142.5 -55.5q-88 0 -141 51t-53 134q0 33 9 60
q-5 58 -39 92.5t-87 34.5q-65 0 -96.5 -43.5t-31.5 -105.5z" />
    <glyph glyph-name="dvKx_MA" horiz-adv-x="1545" 
d="M709 546q127 0 173 -116q48 27 115 27h86v195h-533v-194q47 88 159 88zM260 -118q-28 0 -47 18.5t-19 46.5t19 47.5t47 19.5t47.5 -19t19.5 -48q0 -28 -19 -46.5t-48 -18.5zM310 176q66 0 102.5 43.5t36.5 99.5q0 57 -36 99.5t-103 42.5q-59 0 -99 -38.5t-40 -102.5
q0 -66 39 -105t100 -39zM988 178q45 0 70 31.5t25 87.5v74h-83q-48 0 -78 -26t-30 -71q0 -44 27 -70t69 -26zM1348 457v195h-167v-195h167zM550 312v-312h-101v183q-50 -95 -173 -95q-95 0 -153 64t-58 169q0 104 59.5 167t155.5 63q119 0 169 -92v193h-473v88h1599v-88
h-122v-652h-105v371h-167v-69q0 -102 -49.5 -157.5t-142.5 -55.5q-88 0 -141 51t-53 134q0 33 9 60q-5 58 -39 92.5t-87 34.5q-65 0 -96.5 -43.5t-31.5 -105.5z" />
    <glyph glyph-name="dvK_YA" horiz-adv-x="1474" 
d="M709 546q64 1 107 -30.5t63 -83.5q104 24 104 147v73h-433v-197q47 90 159 91zM310 176q66 0 102.5 43.5t36.5 99.5q0 57 -36 99.5t-103 42.5q-59 0 -99 -38.5t-40 -102.5q0 -66 39 -105t100 -39zM1084 191q82 0 134.5 50.5t52.5 129.5v281h-185v-91q0 -184 -187 -193v-4
q0 -76 49.5 -124.5t135.5 -48.5zM550 312v-312h-101v183q-50 -95 -173 -95q-95 0 -153 64t-58 169q0 104 59.5 167t155.5 63q119 0 169 -92v193h-473v88h1522v-88h-122v-652h-105v199q-65 -96 -209 -96q-123 0 -193 72t-73 191q-7 40 -37 68t-81 27q-64 -1 -96 -44.5
t-32 -104.5z" />
    <glyph glyph-name="dvK_LA" horiz-adv-x="1645" 
d="M1193 402q35 114 141 132v118h-784v-194q47 88 159 88q96 0 147 -78q60 69 161 69q71 0 113.5 -38.5t59.5 -96.5h3zM310 176q66 0 102.5 43.5t36.5 99.5q0 57 -36 99.5t-103 42.5q-59 0 -99 -38.5t-40 -102.5q0 -66 39 -105t100 -39zM550 312v-312h-101v183
q-50 -95 -173 -95q-95 0 -153 64t-58 169q0 104 59.5 167t155.5 63q119 0 169 -92v193h-473v88h1692v-88h-231v-124q66 -20 104.5 -78t38.5 -145q0 -110 -64 -179t-180 -69q-8 0 -34 2v92q20 -2 28 -2q68 0 106 42t38 112q0 63 -31 102.5t-87 39.5q-60 0 -90.5 -44.5
t-30.5 -119.5v-18h-88v18q0 74 -29 119t-87 45t-90 -39t-32 -103q0 -70 38 -112t106 -42q8 0 28 2v-92q-26 -2 -34 -2q-116 0 -180 69t-64 179q0 16 1 24q-2 60 -37 96t-89 36q-65 0 -96.5 -43.5t-31.5 -105.5z" />
    <glyph glyph-name="dvK_VA" horiz-adv-x="1411" 
d="M550 652v-194q47 88 158 88q93 0 145 -71q64 80 178 80q125 0 180 -94v191h-661zM310 176q66 0 102.5 43.5t36.5 99.5q0 57 -36 99.5t-103 42.5q-59 0 -99 -38.5t-40 -102.5q0 -66 39 -105t100 -39zM1058 170q73 0 113 45.5t40 103.5v1q0 60 -39.5 105t-113.5 45
q-65 0 -108 -41t-43 -108q0 -69 42.5 -110t108.5 -41zM1435 652h-122v-652h-102v181q-55 -95 -180 -95q-102 0 -164.5 65t-62.5 170q0 63 -35 101.5t-91 38.5q-65 0 -96.5 -43.5t-31.5 -105.5v-312h-101v183q-50 -95 -173 -95q-95 0 -153 64t-58 169q0 104 59.5 167
t155.5 63q119 0 169 -92v193h-473v88h1459v-88z" />
    <glyph glyph-name="dvK_V_YA" horiz-adv-x="1885" 
d="M1054 555q82 0 137 -36.5t80 -96.5q122 18 122 152v78h-843v-194q47 88 158 88q94 0 147 -74q69 83 199 83zM310 176q66 0 102.5 43.5t36.5 99.5q0 57 -36 99.5t-103 42.5q-59 0 -99 -38.5t-40 -102.5q0 -66 39 -105t100 -39zM1060 170q72 0 111 45t38 106v6q-2 20 -2 31
q-8 47 -47 79.5t-100 32.5q-66 0 -109.5 -41t-43.5 -108q0 -69 43 -110t110 -41zM1495 191q82 0 134.5 50.5t52.5 129.5v281h-185v-96q0 -187 -187 -202v-1q0 -74 49.5 -118t135.5 -44zM550 312v-312h-101v183q-50 -95 -173 -95q-95 0 -153 64t-58 169q0 104 59.5 167
t155.5 63q119 0 169 -92v193h-473v88h1933v-88h-122v-652h-105v199q-65 -96 -209 -96t-215 93q-61 -110 -200 -110q-115 0 -184.5 65t-69.5 170q0 63 -35 101.5t-91 38.5q-65 0 -96.5 -43.5t-31.5 -105.5z" />
    <glyph glyph-name="dvK_SHA" horiz-adv-x="1547" 
d="M310 176q66 0 102.5 43.5t36.5 99.5q0 57 -36 99.5t-103 42.5q-59 0 -99 -38.5t-40 -102.5q0 -66 39 -105t100 -39zM709 546q71 0 118 -39.5t65 -107.5h56q82 0 134.5 35t52.5 107q0 53 -29.5 85t-80.5 32q-21 0 -40 -6h-435v-195q47 89 159 89zM1025 -8
q-105 0 -163 61.5t-58 165.5v102q0 63 -35 101.5t-91 38.5q-65 0 -96.5 -43.5t-31.5 -105.5v-312h-101v183q-50 -95 -173 -95q-95 0 -153 64t-58 169q0 104 59.5 167t155.5 63q119 0 169 -92v193h-473v88h984q30 9 67 9q97 0 155.5 -56.5t58.5 -158.5q0 -109 -71.5 -166.5
t-184.5 -57.5h-76v-98q0 -58 28 -93.5t85 -35.5q49 0 77.5 32.5t28.5 85.5v14h102v-15q0 -97 -55 -152.5t-150 -55.5zM1343 0v740h228v-88h-122v-652h-106z" />
    <glyph glyph-name="dvK_SS_MA" horiz-adv-x="1342" 
d="M778 165q45 0 70 31.5t25 87.5v74h-82q-49 0 -78.5 -26t-29.5 -71q0 -43 27 -69.5t68 -26.5zM188 560q0 -50 38 -81.5t99 -33.5q77 48 77 114q0 44 -30.5 72t-76.5 28q-45 0 -76 -26t-31 -73zM381 -57v158q-15 -27 -50 -48.5t-86 -21.5q-79 0 -128 46.5t-49 120.5
q0 73 43.5 116t123.5 83q-62 15 -101.5 58.5t-39.5 111.5q0 83 58 133t146 50q82 0 137 -45.5t55 -125.5q0 -78 -64 -135h447v208h-288v87h781v-87h-122v-653h-105v359h-168v-69q0 -102 -49.5 -157.5t-141.5 -55.5q-88 0 -141.5 51t-53.5 134q0 63 31 106h-293
q-34 -16 -46.5 -22.5t-37.5 -22t-35 -28t-19 -32.5t-9 -43q0 -43 28.5 -72t75.5 -29q50 0 79.5 32.5t29.5 79.5h88v-287h-96zM1139 444v208h-168v-208h168z" />
    <glyph glyph-name="dvK_SS_M_YA" horiz-adv-x="1799" 
d="M778 161q45 0 69.5 31.5t24.5 87.5v73h-82q-48 0 -78 -26t-30 -70t27 -70t69 -26zM188 560q0 -50 38 -81.5t99 -33.5q77 48 77 114q0 44 -30.5 72t-76.5 28q-45 0 -76 -26t-31 -73zM381 -57v158q-15 -27 -50 -48.5t-86 -21.5q-79 0 -128 46.5t-49 120.5q0 73 43.5 116
t123.5 83q-62 15 -101.5 58.5t-39.5 111.5q0 83 58 133t146 50q82 0 137 -45.5t55 -125.5q0 -81 -68 -139h450v212h-288v88h1239v-88h-122v-652h-105v186q-66 -97 -210 -97q-121 0 -191 71t-75 193h-150v-68q0 -102 -49.5 -157.5t-141.5 -55.5q-88 0 -141.5 50.5
t-53.5 133.5q0 66 34 111h-295q-34 -16 -46.5 -22.5t-37.5 -22t-35 -28t-19 -32.5t-9 -43q0 -43 28.5 -72t75.5 -29q50 0 79.5 32.5t29.5 79.5h88v-287h-96zM1159 440q148 0 148 133v79h-337v-212h189zM1409 177q81 0 134 50.5t53 129.5v295h-186v-94q0 -89 -49 -138.5
t-137 -54.5v-4q0 -84 49 -134t136 -50z" />
    <glyph glyph-name="dvK_SS_YA" horiz-adv-x="1266" 
d="M188 560q0 -50 38 -81.5t99 -33.5q77 48 77 114q0 44 -30.5 72t-76.5 28q-45 0 -76 -26t-31 -73zM381 -57v158q-15 -27 -50 -48.5t-86 -21.5q-79 0 -128 46.5t-49 120.5q0 73 43.5 116t123.5 83q-62 15 -101.5 58.5t-39.5 111.5q0 83 58 133t146 50q82 0 137 -45.5
t55 -125.5q0 -81 -68 -139h196q156 0 156 133v79h-187v88h703v-88h-122v-652h-105v199q-65 -96 -204 -96q-126 0 -198.5 71.5t-72.5 192.5h-265q-34 -16 -46.5 -22.5t-37.5 -22t-35 -28t-19 -32.5t-9 -43q0 -43 28.5 -72t75.5 -29q50 0 79.5 32.5t29.5 79.5h88v-287h-96z
M876 191q82 0 134.5 50.5t52.5 129.5v281h-185v-79q0 -187 -187 -204v-2q0 -80 49 -128t136 -48z" />
    <glyph glyph-name="dvK_SS_VA" horiz-adv-x="1197" 
d="M188 560q0 -50 38 -81.5t99 -33.5q77 48 77 114q0 44 -30.5 72t-76.5 28q-45 0 -76 -26t-31 -73zM381 -57v158q-15 -27 -50 -48.5t-86 -21.5q-79 0 -128 46.5t-49 120.5q0 73 43.5 116t123.5 83q-62 15 -101.5 58.5t-39.5 111.5q0 83 58 133t146 50q82 0 137 -45.5
t55 -125.5q0 -78 -64 -135h193q28 52 80 81.5t119 29.5q124 0 179 -93v190h-413v88h637v-88h-121v-652h-103v180q-54 -94 -179 -94q-103 0 -165.5 65.5t-62.5 172.5q0 22 3 43h-270q-34 -16 -46.5 -22.5t-37.5 -22t-35 -28t-19 -32.5t-9 -43q0 -43 28.5 -72t75.5 -29
q50 0 79.5 32.5t29.5 79.5h88v-287h-96zM845 170q73 0 112.5 45.5t39.5 103.5v1q0 61 -39 105.5t-113 44.5q-65 0 -108 -41t-43 -108q0 -69 42.5 -110t108.5 -41z" />
    <glyph glyph-name="dvK_SA" horiz-adv-x="1549" 
d="M891 411q82 0 122.5 42t40.5 115v84h-504v-198q47 88 159 88q67 0 113 -35.5t65 -95.5h4zM310 176q66 0 102.5 43.5t36.5 99.5q0 57 -36 99.5t-103 42.5q-59 0 -99 -38.5t-40 -102.5q0 -66 39 -105t100 -39zM1158 568q0 -89 -48 -147h236v231h-188v-84zM1210 188
q0 -91 -53.5 -144t-146.5 -53q-99 0 -152.5 60t-53.5 157v124q0 55 -35 92t-91 37q-65 0 -96.5 -43.5t-31.5 -105.5v-312h-101v183q-50 -95 -173 -95q-95 0 -153 64t-58 169q0 104 59.5 167t155.5 63q119 0 169 -92v193h-473v88h1597v-88h-123v-652h-104v335h-439v-132
q0 -55 25.5 -88.5t75.5 -33.5q47 0 73.5 30.5t26.5 81.5v12h101q1 -7 1 -17z" />
    <glyph glyph-name="dvK_S_TTA" horiz-adv-x="1903" 
d="M891 411q82 0 122.5 42t40.5 115v84h-504v-198q47 88 159 88q67 0 113 -35.5t65 -95.5h4zM310 176q66 0 102.5 43.5t36.5 99.5q0 57 -36 99.5t-103 42.5q-59 0 -99 -38.5t-40 -102.5q0 -66 39 -105t100 -39zM1158 568q0 -89 -48 -147h240q34 61 100.5 94t156.5 33h15v104
h-464v-84zM1210 188q0 -91 -53.5 -144t-146.5 -53q-99 0 -152.5 60t-53.5 157v124q0 55 -35 92t-91 37q-65 0 -96.5 -43.5t-31.5 -105.5v-312h-101v183q-50 -95 -173 -95q-95 0 -153 64t-58 169q0 104 59.5 167t155.5 63q119 0 169 -92v193h-473v88h1950v-88h-201v-193h-112
q-84 0 -137 -43.5t-53 -126.5q0 -71 47 -116.5t121 -45.5q76 0 123 47.5t47 122.5h100q0 -117 -73.5 -189t-194.5 -72t-198 70t-77 183q0 23 3 46h-414v-132q0 -55 25.5 -88.5t75.5 -33.5q47 0 73.5 30.5t26.5 81.5v12h101q1 -7 1 -17z" />
    </font>
</defs>
</svg>
