<?xml version="1.0" standalone="no"?>
<!DOCTYPE svg PUBLIC "-//W3C//DTD SVG 1.1//EN" "http://www.w3.org/Graphics/SVG/1.1/DTD/svg11.dtd">
<svg xmlns="http://www.w3.org/2000/svg">
<metadata>Generated by Fontastic.me</metadata>
<defs>
<font id="zloob" horiz-adv-x="512">
<font-face font-family="zloob" units-per-em="512" ascent="480" descent="-32"/>
<missing-glyph horiz-adv-x="512" />

<glyph glyph-name="simple-line-icons" unicode="&#97;" d="M503 404c-5 3-12 2-16-2l-81-73-73 75 73 83c3 5 4 11 2 16-2 6-8 9-14 9l-4 0c-45 0-122-4-156-38l-7-7c-37-38-43-99-24-146l-184-188c-25-25-25-66 0-91l22-23c13-13 29-19 45-19 17 0 33 6 45 19l188 189c17-10 42-16 62-16 33 0 64 13 87 37l7 7c37 38 37 118 37 154 0 6-3 12-9 14z m-50-147l-6-6c-18-19-41-27-66-27-12 0-28 2-40 7-10 4-19 10-27 17l-205-206c-6-7-14-10-23-10-8 0-16 3-22 10l-23 22c-12 13-12 33 0 46l201 205c-7 9-12 20-14 31l0 0c-8 31-4 74 21 99l6 7c21 21 75 27 105 29l-59-68c-5-6-5-15 1-21l93-95c5-6 14-6 20 0l66 58c-2-31-8-77-28-98z"/>
<glyph glyph-name="simple-line-icons-1" unicode="&#98;" d="M480 111l-139 66c18 9 91 12 97 28 0 0-29 44-36 101-2 23-7 52-12 93-7 66-63 113-134 113 0 0 0 0 0 0 0 0 0 0 0 0-71 0-127-47-134-113-5-41-9-70-12-92-7-58-36-102-36-102 6-16 79-19 97-28l-139-66c0 0-32-12-32-38l0-42c0-18 14-31 32-31l448 0c18 0 32 13 32 31l0 42c0 26-32 38-32 38z m-448-79l0 41c0 2 6 6 11 8 1 0 2 0 3 1l139 66c11 5 18 16 18 28 0 13-6 24-17 29-11 6-26 8-48 12-5 1-13 3-20 4 9 21 20 49 24 82 1 8 2 17 3 27 3 17 6 39 9 65 5 50 47 85 102 85 0 0 0 0 0 0 0 0 0 0 0 0 55 0 97-35 102-85 3-26 6-48 9-65 1-10 2-19 3-27 4-33 15-61 24-82-7-1-15-3-20-4-22-4-37-6-48-12-11-5-17-16-17-29 0-12 7-23 18-28l139-66c1-1 2-1 3-1 5-2 10-6 11-8l0-41z"/>
<glyph glyph-name="simple-line-icons-2" unicode="&#99;" d="M32 32l0 33c0 12 9 16 13 18l141 66c10 5 17 15 18 26 1 11-3 21-12 28-33 27-48 86-48 117l0 80c0 33 58 80 112 80 54 0 112-46 112-80l0-80c0-31-13-90-48-117-8-7-13-18-12-29 2-11 9-20 19-25l81-39 19 27-87 41c45 35 60 104 60 142l0 80c0 53-74 112-144 112-71 0-144-59-144-112l0-80c0-35 15-106 60-142l-140-66c0 0-32-14-32-32l0-48c0-18 14-32 32-32l320 0-26 32z m474 118c-7 6-17 4-22-2l-69-105-42 43c-7 6-17 6-23 0-6-7-6-17 0-23l57-56c6-7 16-7 22 0 2 1 3 3 4 5l76 116c5 7 4 17-3 22z"/>
<glyph glyph-name="simple-line-icons-3" unicode="&#100;" d="M400 320l0 80c0 53-74 112-144 112-71 0-144-59-144-112l0-80c0-35 15-106 60-141l-140-67c0 0-32-14-32-32l0-48c0-17 14-32 32-32l304 0 0 32-304 0 0 33c0 12 9 16 13 18l141 66c10 5 17 15 18 26 1 11-3 22-12 28-33 27-48 86-48 117l0 80c0 33 58 80 112 80 54 0 112-46 112-80l0-80c0-31-13-90-48-117-8-6-13-17-12-28 2-12 9-21 19-26l9-4 14 26-10 7c45 35 60 104 60 142z m62-247l46 45c6 6 6 16 0 22-7 7-17 7-23 0l-45-45-46 45c-6 7-16 7-22 0-6-6-6-16 0-22l45-45-45-46c-6-6-6-16 0-22 6-7 16-7 22 0l46 45 45-45c6-7 16-7 23 0 6 6 6 16 0 22z"/>
<glyph glyph-name="simple-line-icons-4" unicode="&#101;" d="M368 48l-225 0c-9 0-16-7-16-16 0-9 7-16 16-16l225 0c9 0 16 7 16 16 0 9-7 16-16 16z m141 403c-2 8-8 13-16 13l-78 0 0 16c0 9-7 16-16 16l-288 0c-9 0-16-7-16-16l0-16-76 0c-8 0-14-5-16-13 0-2-11-58 20-96 18-22 46-34 82-35 20-60 72-105 134-112l0-111-48 0c-9 0-16-8-16-16 0-9 7-16 16-16l129 0c9 0 16 7 16 16 0 8-7 16-16 16l-49 0 0 111c62 7 113 51 134 112 37 1 65 12 84 35 31 38 20 94 20 96z m-461-76c-14 17-15 42-15 57l62 0 0-54c0-9 1-17 2-25-22 2-38 9-49 22z m335 3c0-77-58-139-128-139-71 0-128 62-128 139l0 86 256 0 0-86z m81-3c-11-13-28-21-51-23 1 9 2 17 2 26l0 54 64 0c0-15-1-40-15-57z"/>
<glyph glyph-name="simple-line-icons-5" unicode="&#102;" d="M352 512l-192 0c-27 0-48-21-48-48l0-416c0-27 21-48 48-48l192 0c27 0 48 21 48 48l0 416c0 27-21 48-48 48z m16-464c0-9-7-16-16-16l-192 0c-9 0-16 7-16 16l0 416c0 9 7 16 16 16l192 0c9 0 16-7 16-16z m-112 64c-18 0-32-14-32-32 0-18 14-32 32-32 18 0 32 14 32 32 0 18-14 32-32 32z m32 352l-64 0c-9 0-16-7-16-16 0-9 7-16 16-16l64 0c9 0 16 7 16 16 0 9-7 16-16 16z"/>
<glyph glyph-name="simple-line-icons-6" unicode="&#103;" d="M480 464l-448 0c-18 0-32-14-32-32l0-272c0-18 14-32 32-32l208 0 0-48-80 0c-9 0-16-7-16-16 0-9 7-16 16-16l192 0c9 0 16 7 16 16 0 9-7 16-16 16l-80 0 0 48 208 0c18 0 32 14 32 32l0 272c0 18-14 32-32 32z m0-304l-448 0 0 272 448 0z"/>
<glyph glyph-name="simple-line-icons-7" unicode="&#104;" d="M467 479c5 0 9-1 11-2 2-6 5-28-17-50l-106-106-10-10 1-14c2-30 5-84 8-130 2-41 5-80 5-83 0-2 0-3-2-5-5-6-14-16-21-24-12 31-36 97-49 133l-17 48-36-36-65-63-9-9-1-13c0-10 0-28 0-44 0-12 0-22 0-28 0 0 2 0 2-1-1 3-3 5-4 7-13 21-32 51-37 60l-4 6-7 4c-24 15-51 32-67 42 0 1 1-1 1-1l1 0c5 0 14 0 23 0 13 0 27 0 38 0 4 0 8 0 11 0l12 0 10 9 62 65 36 35-47 18c-35 13-103 38-135 50 8 7 18 16 24 21 1 1 3 2 4 2l1 0c3 0 47-3 89-6 45-3 96-6 125-8l14-1 11 10 105 105c16 17 32 19 40 19m0 32c-19 0-42-7-63-28l-105-105c-59 4-211 14-215 14-1 0-1 0-2 0-6 0-14-1-24-10-12-9-37-33-37-33-6-6-9-13-8-20 0-4 2-12 13-16 6-2 106-40 152-56l-63-65c-3 0-6 0-10 0-19 0-49 0-61 0-2 0-3 0-4 0-3 0-11 2-31-15l-1-1c-6-6-7-12-8-16 0-4 1-10 7-14 4-3 49-32 86-54 8-15 49-79 51-83 3-5 8-8 14-8 0 0 1 0 1 0 6 0 12 3 18 9 16 19 14 27 14 31 0 10 0 56 0 74l66 62c16-45 53-144 55-150 4-11 12-13 16-13 1 0 2 0 2 0 7 0 13 3 19 8 0 0 23 24 32 36 10 12 10 23 10 27 0 4-10 155-13 214l105 105c38 37 32 82 18 96-6 6-19 11-34 11z"/>
<glyph glyph-name="simple-line-icons-8" unicode="&#105;" d="M425 512l-319 0c-23 0-33-17-33-33l0-64-18 0c-9 0-16-7-16-15 0-9 7-16 16-16l18 0 0-64-16 0c-9 0-16-7-16-16 0-9 7-16 16-16l16 0 0-64-17 0c-8 0-15-7-15-16 0-9 7-16 15-16l17 0 0-64-17 0c-8 0-15-7-15-16 0-8 7-15 15-15l17 0 0-65c0-27 20-32 32-32l320 0c26 0 48 21 48 48l0 416c0 27-22 48-48 48z m-320-480l0 65 16 0c9 0 16 7 16 15 0 9-7 16-16 16l-16 0 0 64 16 0c9 0 16 7 16 16 0 9-7 16-16 16l-16 0 0 64 17 0c8 0 15 7 15 16 0 9-7 16-15 16l-17 0 0 64 15 0c9 0 16 7 16 16 0 8-7 15-16 15l-15 0 0 64c0 0 0 1 0 1 0 0 0 0 1 0l255 0 0-448z m336 16c0-9-8-16-16-16l-32 0 0 448 32 0c8 0 16-7 16-16z"/>
<glyph glyph-name="simple-line-icons-9" unicode="&#106;" d="M396 144c-50 0-79 23-98 39-7 6-13 11-18 16-9 7-19 17-23 18 0 0-2 0-2 0-1 0-2 0-2 0-3-1-12-9-19-15-7-6-14-12-23-19l-1-1c-22-17-49-38-97-38-35 0-70 16-91 42-14 17-29 47-19 92 1 6 5 10 10 12 5 2 11 1 15-2 0-1 11-9 30-9 9 0 18 2 28 6 17 8 28 28 41 42 17 19 36 41 68 41 22 0 42-8 60-24 18 16 37 24 59 24 32 0 52-22 69-41 13-14 25-34 42-42 9-4 19-6 28-6 19 0 31 8 32 9 4 3 10 4 15 2 5-2 9-7 10-12 8-45-7-75-21-92-21-26-57-42-93-42z m-141 105c1 0 2 0 3 0 0 0 2 0 2 0 0 0 2 0 2 0 11-2 22-11 38-26 6-4 12-10 18-15 17-14 39-32 78-32 27 0 53 11 69 30 10 13 15 28 16 45-8-2-17-4-28-4-13 0-27 3-41 9-23 10-38 35-52 50-17 18-29 30-46 30-23 0-38-14-47-25-3-4-7-6-12-6-5 0-9 2-12 6-9 11-24 25-47 25-18 0-29-11-46-30-13-15-28-40-51-50-14-6-28-9-41-9-11 0-19 2-27 4 0-17 5-33 16-45 14-19 40-30 66-30 37 0 58 16 77 31l2 1c8 7 15 13 21 18 15 12 24 20 34 22 0 0 5 1 8 1z"/>
<glyph glyph-name="simple-line-icons-10" unicode="&#107;" d="M257 512c-79 0-145-64-145-143l0-226c0-79 66-143 145-143 79 0 143 64 143 143l0 226c0 79-64 143-143 143z m111-369c0-61-50-111-111-111-62 0-113 50-113 111l0 226c0 61 51 111 113 111 61 0 111-50 111-111z m-112 273c-9 0-16-7-16-16l0-80c0-9 7-16 16-16 9 0 16 7 16 16l0 80c0 9-7 16-16 16z"/>
<glyph glyph-name="simple-line-icons-11" unicode="&#108;" d="M480 482l0 14c0 9-7 16-16 16l-112 0c-9 0-16-7-16-16l0-65c0 0 0 0 0 0l0-199c0-48-27-87-75-87-49 0-85 39-85 87l0 250 0 0 0 14c0 9-7 16-16 16l-112 0c-9 0-16-7-16-16l0-65c0 0 0-1 0-1l0-205c0-125 99-225 224-225 124 0 224 100 224 225l0 257z m-32-2l0-64-80 0 0 64z m-304 0l0-64-80 0 0 64z m112-448c-107 0-192 86-192 193l0 159 80 0 0-152c0-66 51-119 117-119 65 0 107 53 107 119l0 152 80 0 0-159c0-107-86-193-192-193z"/>
<glyph glyph-name="simple-line-icons-12" unicode="&#109;" d="M298 480l0 0m0 0l-36-190 130 0-178-258 36 209-130 1 178 238m0 32c-1 0-2 0-3 0-6-1-9-3-14-6-2-1-4-3-6-6-1 0-2-1-2-2l-179-237c-7-10-8-23-3-33 5-11 16-18 28-18l93-1-29-171c-3-14 5-29 19-35 4-2 8-3 12-3 10 0 19 5 25 14l179 257c7 9 8 22 3 33-5 11-16 17-28 18l-93 0 29 150c1 3 1 5 1 8 0 17-14 31-31 32-1 0-1 0-1 0z"/>
<glyph glyph-name="simple-line-icons-13" unicode="&#110;" d="M391 208c-8 4-18 0-21-8-1 0-34-72-115-73-1 0-1 0-2 0-77 0-110 70-111 73-4 8-13 12-21 8-8-3-12-13-8-21 1-4 42-92 140-92 1 0 2 0 2 0 102 1 142 89 144 92 3 8 0 18-8 21z m-135 304c-141 0-256-115-256-256 0-141 115-256 256-256 141 0 256 115 256 256 0 141-115 256-256 256z m0-480c-124 0-224 100-224 224 0 124 100 224 224 224 124 0 224-100 224-224 0-124-100-224-224-224z m-80 240c17 0 32 14 32 32 0 18-15 32-32 32-18 0-32-14-32-32 0-18 14-32 32-32z m160 0c17 0 32 14 32 32 0 18-15 32-32 32-18 0-32-14-32-32 0-18 14-32 32-32z"/>
<glyph glyph-name="simple-line-icons-14" unicode="&#111;" d="M256 512c-141 0-256-115-256-256 0-141 115-256 256-256 141 0 256 115 256 256 0 141-115 256-256 256z m224-256c0-33-7-65-20-93l-142 76c2 5 3 11 3 17 0 36-29 65-65 65-7 0-14-2-21-4l-85 136c32 17 68 27 106 27 124 0 224-100 224-224z m-224 32c18 0 33-14 33-32 0-18-15-33-33-33-18 0-32 15-32 33 0 18 14 32 32 32z m-133 148l85-137c0 0 0 0-1-1l-141 76c15 24 34 45 57 62z m-91-180c0 32 7 62 19 90l142-76c-1-5-2-9-2-14 0-36 29-65 65-65 6 0 12 1 18 3l85-137c-31-16-66-25-103-25-124 0-224 100-224 224z m354-182l-85 136c1 1 1 1 1 1l142-76c-15-24-35-45-58-61z"/>
<glyph glyph-name="simple-line-icons-15" unicode="&#112;" d="M508 264l-4 4c0 0 0 0 0 0l-65 59c-5 5-12 5-17 0l-3-4c-5-4-3-12 2-16l38-35-186 0 0 187 35-38c4-5 12-7 16-2l4 3c5 5 5 12 0 17l-56 62c-2 3-4 5-7 6l0 1c-3 3-6 4-8 4-3 0-6-1-9-4l-4-4c0 0 0 0 0 0l-58-64c-4-5-4-12 0-17l4-3c5-4 12-3 17 2l34 38 0-188-188 0 38 35c5 4 7 12 2 16l-3 4c-5 5-12 5-17 0l-62-56c-3-2-5-4-6-7l-1 0c-3-3-4-5-4-8 0-3 1-6 4-9l4-4c0 0 0 0 0 0l64-58c5-4 12-4 17 0l3 4c4 5 3 12-2 17l-38 34 189 0 0-188-34 38c-5 5-12 6-17 2l-4-3c-4-5-4-12 0-17l58-64c0 0 0 0 0 0l4-4c3-3 6-4 9-4 3 0 5 1 8 4l4 4c0 0 0 0 0 0l59 65c5 5 5 12 0 17l-4 3c-4 5-12 3-16-2l-35-38 0 187 187 0-38-34c-5-5-6-12-2-17l3-4c5-4 12-4 17 0l64 58c0 0 0 0 0 0l4 4c3 3 4 6 4 9 0 2-1 5-4 8z"/>
<glyph glyph-name="simple-line-icons-16" unicode="&#113;" d="M496 112l-64 0 0 297 60 60c6 6 6 16 0 22-7 6-17 6-23 0l-59-59-298 0 0 64c0 9-7 16-16 16-9 0-16-7-16-16l0-64-64 0c-9 0-16-7-16-16 0-9 7-16 16-16l64 0 0-304c0-1 0-3 1-4 0-1 0-1 0-2 2-4 5-7 9-9 1 0 1 0 2 0 1-1 3-1 4-1l304 0 0-64c0-9 7-16 16-16 9 0 16 7 16 16l0 64 64 0c9 0 16 7 16 16 0 9-7 16-16 16z m-118 288l-266-265 0 265z m-243-288l265 265 0-265z"/>
<glyph glyph-name="simple-line-icons-17" unicode="&#114;" d="M464 424l-416 0c-27 0-48-21-48-48l0-240c0-27 21-48 48-48l416 0c27 0 48 21 48 48l0 240c0 27-21 48-48 48z m-416-32l416 0c9 0 16-7 16-16l0-32-448 0 0 32c0 9 7 16 16 16z m416-272l-416 0c-9 0-16 7-16 16l0 144 448 0 0-144c0-9-7-16-16-16z"/>
<glyph glyph-name="simple-line-icons-18" unicode="&#115;" d="M405 27l-85 100 0 177 11 0c9 0 16 7 16 16 0 9-7 16-16 16l-27 0c-9 0-16-7-16-16l0-199c0-4 1-7 4-10l65-79-202 0 65 79c3 3 4 6 4 10l0 199c0 9-7 16-16 16l-27 0c-9 0-16-7-16-16 0-9 7-16 16-16l11 0 0-177-85-100c-4-5-6-12-3-18 3-5 8-9 15-9l274 0c7 0 12 4 15 9 3 6 1 13-3 18z m-165 325c18 0 32 14 32 32 0 18-14 32-32 32-18 0-32-14-32-32 0-18 14-32 32-32z m104 48c31 0 57 25 57 56 0 31-26 56-57 56-31 0-56-25-56-56 0-31 25-56 56-56z m0 80c13 0 24-11 24-24 0-13-11-24-24-24-13 0-24 11-24 24 0 13 11 24 24 24z"/>
<glyph glyph-name="simple-line-icons-19" unicode="&#116;" d="M256 480c54 0 112-46 112-80l0-80c0-31-13-90-47-117-9-6-14-17-12-28 1-12 8-21 18-26l139-66c1 0 14-2 14-19l0-32-448 0 0 33c0 12 10 16 13 18l141 67c10 4 17 14 18 25 2 11-3 22-11 29-34 26-49 85-49 116l0 80c0 33 58 80 112 80m0 32c-71 0-144-59-144-112l0-80c0-35 16-106 60-141l-140-67c0 0-32-14-32-32l0-48c0-17 14-32 32-32l448 0c17 0 32 15 32 32l0 48c0 19-32 32-32 32l-139 66c44 35 59 104 59 142l0 80c0 53-73 112-144 112z"/>
<glyph glyph-name="simple-line-icons-20" unicode="&#117;" d="M256 494c-141 0-256-115-256-256 0-88 45-169 120-216 8-5 18-3 22 5 5 7 3 17-5 22-27 17-49 39-66 64l16 10c8 4 11 14 6 22-4 7-14 10-22 5l-16-9c-13 25-20 53-22 81l18 0c9 0 16 8 16 16 0 9-7 16-16 16l-18 0c2 30 10 58 22 83l16-9c3-2 6-3 8-3 6 0 11 3 14 8 5 8 2 18-6 22l-16 9c16 24 37 44 60 60l9-16c3-5 9-8 14-8 3 0 6 1 8 2 8 5 11 15 6 22l-9 16c25 12 52 19 81 21l0-20c0-9 7-16 16-16 8 0 16 7 16 16l0 20c29-2 57-9 82-22l-9-15c-4-7-2-17 6-22 3-1 5-2 8-2 6 0 11 3 14 8l9 15c23-16 43-36 59-59l-15-9c-8-4-10-14-6-22 3-5 8-8 14-8 3 0 5 1 8 3l15 8c12-25 20-53 22-82l-18 0c-8 0-16-7-16-16 0-9 8-16 16-16l18 0c-2-28-9-56-21-81l-16 9c-8 5-18 2-22-5-4-8-2-18 6-22l16-9c-18-27-41-49-69-66-7-5-10-15-5-22 3-5 8-8 14-8 2 0 5 1 8 2 76 47 122 129 122 218 0 141-115 256-256 256z m118-206c8 5 10 14 6 22-5 8-14 10-22 6l-87-50c-4 2-10 4-15 4-18 0-32-14-32-32 0-18 14-32 32-32 17 0 31 14 31 32 0 0 0 0 0 0z"/>
<glyph glyph-name="simple-line-icons-21" unicode="&#118;" d="M470 417c-14 10-52 23-214 23-174 0-199-15-208-20-44-26-48-143-48-167 0-31 5-136 48-161 8-5 34-20 208-20 162 0 201 13 214 23 38 27 42 120 42 158 0 32-3 136-42 164z m-18-296c-6-4-38-17-196-17-153 0-185 11-191 15-16 9-32 59-33 134 1 76 18 131 33 140 6 3 38 15 191 15 158 0 190-13 196-17 13-10 28-62 28-138 0-77-15-122-28-132z m-92 148l-144 88c-5 3-11 3-16 0-5-3-8-8-8-14l0-176c0-6 3-12 8-14 3-2 5-2 8-2 3 0 6 0 8 2l144 88c5 3 8 8 8 14 0 5-3 11-8 14z m-136-74l0 120 97-60z"/>
<glyph glyph-name="simple-line-icons-22" unicode="&#119;" d="M342 433c27 0 51-11 67-29 21 5 41 12 59 22-7-21-22-38-41-49 19 2 37 7 53 14-12-18-28-34-46-46 0-4 0-8 0-12 0-118-92-254-261-254-52 0-100 15-141 40 7 0 14-1 22-1 43 0 83 14 114 38-40 1-74 27-86 62 6-1 11-1 17-1 9 0 17 1 25 3-42 8-74 44-74 87 0 1 0 1 0 1 12-6 26-10 42-11-25 16-41 44-41 75 0 16 4 31 12 44 45-54 113-89 190-93-2 7-3 14-3 20 0 50 41 90 92 90m138-42l0 0m-138 74c-63 0-115-46-123-106-51 11-98 38-131 78-7 7-16 11-25 11-1 0-2 0-2 0-11-1-20-6-25-15-12-19-17-40-17-61 0-15 2-29 7-42-5-6-8-14-8-22l0-1c0-31 12-60 33-82-1-5-1-11 1-17 7-21 20-40 36-54-11-3-22-4-34-4-6 0-13 1-18 1-2 0-3 0-4 0-14 0-26-8-30-21-5-14 0-30 13-38 47-29 102-45 158-45 182 0 291 143 293 282 15 12 29 27 40 43 4 5 6 12 6 19 0 11-5 20-14 26 4 12 0 26-10 34-6 5-13 7-20 7-6 0-11-1-16-4-11-6-22-11-34-15-22 17-48 26-76 26z"/>
<glyph glyph-name="simple-line-icons-23" unicode="&#120;" d="M264 480l0-112 112 0 0-48-111 0-1-139c0-26 2-43 4-50 5-12 20-26 49-26 22 0 53 6 75 23l0-74c-19-9-36-13-52-17-15-3-31-5-49-5-20 0-77 0-100 60-5 11-7 26-7 47l0 181-64 0 0 49c22 0 86 13 86 111l58 0m0 32l-58 0c-18 0-32-14-32-32 0-73-41-79-54-79-17 0-32-14-32-32l0-49c0-8 3-16 9-22 6-6 14-10 23-10l32 0 0-149c0-25 3-44 9-59 14-36 49-80 130-80 20 0 39 2 57 6l3 1c15 3 34 8 55 18 11 5 18 16 18 29l0 74c0 12-7 23-18 29-4 2-9 3-14 3-7 0-13-2-19-6-19-14-43-17-56-17-13 0-18 4-19 5 0 3-2 12-2 39l0 107 80 0c18 0 32 15 32 32l0 48c0 18-14 32-32 32l-80 0 0 80c0 18-14 32-32 32z"/>
<glyph glyph-name="simple-line-icons-24" unicode="&#121;" d="M291 472c2 0 3 0 3 0l42 0-1-48-41 0c-23 0-22-20-22-20l0-76 80 0-11-48-70 0 0-240-48 0 0 240-63 0 0 48 63 0c0 0 0 59 0 75 0 65 54 69 68 69m45 0l0 0m-45 32c-12 0-34-2-55-15-21-12-45-37-45-86l0-43-31 0c-9 0-17-3-23-9-6-6-9-15-9-23l0-48c0-18 14-32 32-32l31 0 0-208c0-17 15-32 32-32l48 0c18 0 32 15 32 32l0 208 38 0c14 0 27 10 31 23l11 48c3 10 1 20-5 28-6 8-15 13-26 13l-48 0 0 32 31 0c18 0 32 14 32 32l1 46c0 0 0 1 0 2 0 17-15 32-32 32l-41 0c-1 0-2 0-4 0z"/>
<glyph glyph-name="simple-line-icons-25" unicode="&#122;" d="M512 400c-1 5-3 9-8 12l-142 89c-6 4-14 3-19-1l-87-71-87 71c-5 4-13 5-19 1l-142-89c-5-3-7-7-8-12 0-5 2-10 6-14l83-69-71-56c-4-3-7-8-6-13 0-5 3-10 7-13l65-43c-3-3-5-7-5-12l0-64c0-6 3-11 8-14l161-91c2-2 5-2 8-2 3 0 6 0 8 2l159 91c5 3 8 8 8 14l0 75c0 1 0 2 0 3l62 41c4 3 7 8 7 13 0 5-2 10-6 13l-71 56 83 69c4 4 6 9 6 14z m-144-83l-112-71-112 71 112 73z m-325 80l115 71 71-58-114-74z m72-100l113-71-64-49-109 73z m-4-123l45-30c5-4 13-3 18 1l65 49 0-141-128 72z m288-49l-128-73 0 144 66-51c3-2 7-4 10-4 3 0 6 1 9 3l43 29 0-48z m58 125l-109-73-64 49 113 71z m-60 86l-114 74 71 58 115-71z"/>
<glyph glyph-name="simple-line-icons-26" unicode="&#65;" d="M256 512c-35 0-68-7-99-20-1 0-2-1-3-1-90-40-154-130-154-235 0-141 115-256 256-256 141 0 256 115 256 256 0 141-115 256-256 256z m224-256c0-2 0-4 0-5-25 6-87 18-164 2-6 15-14 31-22 47-1 1-2 3-2 4 82 32 117 74 131 101 35-40 57-92 57-149z m-81 172c-8-17-35-63-123-96-39 72-70 116-87 138 21 6 44 10 67 10 54 0 104-20 143-52z m-241 29c14-16 45-58 88-135-100-30-182-27-210-24 14 70 60 129 122 159z m-126-201c0 3 0 7 0 10 10-1 25-2 45-2 43 0 108 6 184 29 1-2 3-5 4-8 8-14 14-27 20-41-14-4-28-9-42-16-91-41-134-100-149-126-38 40-62 94-62 154z m86-176c8 15 45 77 138 119 14 6 28 11 41 15 31-77 41-140 45-165-27-11-56-17-86-17-52 0-100 18-138 48z m254-16c-5 31-16 89-43 158 74 15 133 1 148-4-11-65-51-120-105-154z"/>
<glyph glyph-name="simple-line-icons-27" unicode="&#66;" d="M454 440c-6 5-14 8-22 8-1 0-1 0-2 0-1 0-6 0-14 0-13 0-39 1-64 7-32 8-68 44-79 51-5 4-12 6-18 6-6 0-12-2-17-6-2-1-40-42-78-51-24-6-51-7-64-7-8 0-13 0-14 0-1 0-1 0-2 0-8 0-16-3-22-8-6-6-10-15-10-24l0-80c0-295 193-334 202-335 1 0 3-1 5-1 2 0 4 1 6 1 8 1 203 40 203 335l0 80c0 9-4 18-10 24z m-22-104c0-272-177-304-177-304 0 0-175 32-175 304 0 70 0 80 0 80 0 0 6 0 16 0 16 0 45 1 72 8 44 11 87 56 87 56 0 0 45-45 90-56 27-7 55-8 71-8 10 0 16 0 16 0 0 0 0-10 0-80z m-108 3c-6 6-17 6-23 0l-45-45-45 45c-7 6-17 6-23 0-6-6-6-17 0-23l45-45-45-45c-6-6-6-17 0-23 6-6 16-6 23 0l45 45 45-45c6-6 17-6 23 0 6 6 6 17 0 23l-45 45 45 45c6 6 6 17 0 23z"/>
<glyph glyph-name="simple-line-icons-28" unicode="&#67;" d="M416 512l-320 0c-27 0-48-21-48-48l0-416c0-27 21-48 48-48l320 0c27 0 48 21 48 48l0 416c0 27-21 48-48 48z m16-464c0-9-7-16-16-16l-320 0c-9 0-16 7-16 16l0 416c0 9 7 16 16 16l320 0c9 0 16-7 16-16z m-176 64c-18 0-32-14-32-32 0-18 14-32 32-32 18 0 32 14 32 32 0 18-14 32-32 32z m32 352l-64 0c-9 0-16-7-16-16 0-9 7-16 16-16l64 0c9 0 16 7 16 16 0 9-7 16-16 16z"/>
<glyph glyph-name="simple-line-icons-29" unicode="&#68;" d="M510 297l-51 77 25 90c2 5 0 11-4 15-4 4-10 6-15 4l-90-26-77 52c-5 3-11 4-16 1-5-2-9-8-9-14l-3-93-73-57c-4-3-7-9-6-15 1-6 5-11 11-13l68-24c0-1-1-1-1-1l-265-266c-7-6-7-16 0-22 3-3 7-5 11-5 4 0 8 2 11 5l266 265c1 1 1 2 2 4l27-74c2-6 7-10 13-11 0 0 1 0 2 0 5 0 10 2 13 6l57 74 92 3c5 1 11 4 13 9 3 5 3 11-1 16z m-113 4c-5 0-9-3-12-6l-44-57-24 67c-2 5-5 8-10 10l-67 24 56 44c4 3 6 7 6 12l2 71 60-39c4-3 9-4 13-3l69 20-20-68c-1-5 0-10 2-14l40-59z"/>
<glyph glyph-name="simple-line-icons-30" unicode="&#69;" d="M417 480l-33 0 0-108c0-52-28-92-89-123 63-32 90-71 90-129 0-38 0-70 0-88l32 0c8 0 16-7 16-16 0-9-8-16-16-16l-322 0c-8 0-16 7-16 16 0 9 8 16 16 16l33 0c0 18 0 50 0 88 0 58 26 97 89 129-60 31-88 71-88 123l0 108-34 0c-8 0-16 7-16 16 0 9 8 16 16 16l322 0c8 0 16-7 16-16 0-9-8-16-16-16z m-257-360c0-38 0-70 0-88l193 0c0 18 0 50 0 88 0 44-17 79-97 112-80-33-96-68-96-112z m192 360l-191 0 0-108c0-31 10-70 95-105 85 35 96 74 96 105z"/>
<glyph glyph-name="simple-line-icons-31" unicode="&#70;" d="M495 164l0 129 8 4c6 3 9 8 9 14 0 6-3 12-8 14l-241 129c-5 3-11 3-15 0l-240-129c-5-3-8-8-8-14 0-6 3-11 8-14l106-56c-2-2-3-5-3-8l0-135c0-5 2-9 6-12 3-3 36-30 138-30 101 0 136 25 139 28 4 3 6 8 6 13l0 139c0 2 0 4-1 6l64 34 0-112c-9-6-15-16-15-28 0-17 14-32 32-32 17 0 32 15 32 32 0 12-7 22-17 28z m-127-58c-13-6-46-18-113-18-67 0-100 13-112 19l0 118 104-55c3-1 5-2 8-2 2 0 5 1 7 2l106 56z m-113 96l-206 109 206 111 207-110z"/>
<glyph glyph-name="simple-line-icons-32" unicode="&#71;" d="M256 512c-115 0-208-100-208-223l0-273c0-7 4-13 10-15 2-1 4-1 6-1 5 0 9 2 12 5l60 67 48-65c3-5 7-7 12-7l0 0c6 0 10 2 13 6l48 64 46-64c3-4 8-6 13-6 5 0 10 2 13 6l48 66 59-67c4-5 11-6 18-4 6 2 10 8 10 15l0 273c0 123-93 223-208 223z m176-454l-44 50c-4 3-8 5-13 5-5 0-9-3-12-6l-47-64-46 63c-3 5-8 7-13 7l0 0c-5 0-10-2-13-6l-47-64-46 64c-3 3-8 6-12 6-1 0-1 0-1 0-5 0-9-2-12-5l-46-51 0 232c0 105 79 191 176 191 97 0 176-86 176-191l0-231z m-96 278c-18 0-32-14-32-32 0-18 14-32 32-32 18 0 32 14 32 32 0 18-14 32-32 32z m-160 0c-18 0-32-14-32-32 0-18 14-32 32-32 18 0 32 14 32 32 0 18-14 32-32 32z"/>
<glyph glyph-name="simple-line-icons-33" unicode="&#72;" d="M372 474c-13 6-25 12-36 17-29 15-54 21-79 21-49 0-83-28-104-49l-18-18-12-12-17-17-27-27-29-30c-56-55-65-112-29-183 5-11 11-23 17-36 32-69 66-140 121-140 1 0 3 0 4 0 57 4 73 77 87 141 2 10 4 20 6 29 4 15 12 24 32 45l3 3 2 1 2 2 2 3c21 20 30 28 45 32 9 2 19 4 29 6 64 14 137 30 141 87 5 57-69 92-140 125z m107-122c-3-40-92-52-145-65-24-6-38-19-60-40-1-2-3-3-4-5-2-1-3-3-5-4-21-22-34-36-40-60-13-53-25-142-65-145 0 0-1 0-2 0-42 0-78 96-109 158-32 64-18 106 23 146 8 8 17 18 29 30 12 12 27 27 44 44 12 12 22 22 30 30 25 25 51 40 82 40 19 0 40-6 64-18 63-32 162-68 158-111z m-240-16l32 0 0 32-32 0z m0 48l32 0 0 32-32 0z m48 0l32 0 0 32-32 0z m0-48l32 0 0 32-32 0z m-122-96l12 12c6 6 6 16 0 22-6 6-16 6-22 0l-12-12-12 12c-6 6-16 6-22 0-6-6-6-16 0-22l12-12-12-12c-6-6-6-16 0-22 6-6 16-6 22 0l12 13 13-13c6-6 15-6 21 0 6 6 6 16 0 22z"/>
<glyph glyph-name="simple-line-icons-34" unicode="&#73;" d="M254 0c-120 0-206 84-206 199 0 61 37 127 38 130 3 6 10 9 16 8 7-1 12-5 14-12 0 0 10-37 23-58 8-13 17-23 27-30-6 29-12 74-3 119 23 124 121 154 125 155 5 2 11 0 15-4 4-3 6-9 5-14 0-1-16-88 18-162 3-7 8-15 12-23 2 11 4 22 7 33 12 44 45 59 46 60 6 3 12 2 17-2 4-4 7-10 6-15-1-2-5-31 20-74 23-38 30-63 30-111 0-115-88-199-210-199z m-156 278c-9-22-18-51-18-79 0-96 72-167 174-167 103 0 178 71 178 167 0 42-5 61-25 95-13 22-20 42-23 58-3-5-6-12-8-19-10-34-8-74-8-75 1-7-4-13-10-16-7-2-15 0-19 6-1 2-29 42-42 69-26 56-26 117-23 152-26-15-67-49-80-119-12-68 12-136 13-137 2-5 1-11-3-16-4-4-10-6-16-5-2 1-47 12-76 58-6 9-10 18-14 28z"/>
<glyph glyph-name="simple-line-icons-35" unicode="&#74;" d="M513 186c-1 7-27 160-31 184 0 3-1 5-1 8-3 24-9 70-83 70-9 0-16-7-16-16 0-9 7-16 16-16 46 0 48-19 51-42 1-3 1-6 2-9 1-11 10-56 17-101-19 15-42 23-67 23-41 0-78-22-97-54-10 3-26 8-48 8-22 0-37-5-47-9-20 33-55 55-96 55-27 0-52-9-71-25 7 45 16 91 18 103 0 3 1 6 1 9 3 23 6 42 51 42 9 0 16 7 16 16 0 9-7 16-16 16-74 0-80-46-83-70 0-3 0-5-1-8-4-24-28-176-29-183 0-1 0-3 1-4 0-3-1-5-1-7 0-62 52-112 114-112 61 0 111 50 111 112 0 9-1 18-3 27 6 2 18 6 35 6 16 0 28-3 35-6-2-9-4-18-4-27 0-62 52-112 114-112 61 0 111 50 111 112 0 1 0 3 0 5 1 1 1 3 1 5z m-400-90c-44 0-82 36-82 80 0 43 38 79 82 79 44 0 79-35 79-79 0-44-35-80-79-80z m288 0c-44 0-82 36-82 80 0 43 38 79 82 79 38 0 69-26 77-62 1-3 1-6 1-9 0-2 1-3 1-4 0-1 0-3 0-4 0-44-35-80-79-80z"/>
<glyph glyph-name="simple-line-icons-36" unicode="&#75;" d="M512 275c-1 6-3 11-6 16l0 0-1 0c-1 2-3 4-5 6l-209 201c-18 19-50 19-68 0l-209-200c-4-4-14-15-14-26l0-240c0-18 14-32 32-32l448 0c18 0 32 14 32 32l0 239c0 1 0 3 0 4z m-377-126l-103-95 0 186z m33-13c1 0 2 1 3 2 0 1 0 1 0 1l71 65c4 3 8 4 12 4 5 0 10-1 13-4l192-172-404 0z m211 11l101 90 0-181z m-327 144l194 185c3 3 7 5 11 5 4 0 8-2 11-5l181-172-1 0 28-28-121-108-68 61c-19 15-46 16-66-1l-62-57-121 106 13 14z"/>
<glyph glyph-name="simple-line-icons-37" unicode="&#76;" d="M512 275c-1 6-3 11-6 16l0 0-1 0c-1 2-3 4-5 6l-84 84 0 52c0 8-7 16-16 16l-51 0-58 49c-18 19-50 19-68 0l-58-49-53 0c-9 0-16-8-16-16l0-53-82-82c-8-5-14-15-14-26l0-240c0-18 14-32 32-32l448 0c18 0 32 14 32 32l0 239c0 1 0 3 0 4z m-378-126l-102-95 0 186z m31-15c2 1 4 3 6 4 1 1 1 2 2 3l69 64c4 3 8 5 12 5 5 0 10-2 13-4l192-174-404 0z m214 13l101 90 0-181z m70 157l-1 0 28-28-60-53 0 114z m-203 172c3 3 7 5 11 5 4 0 8-2 11-5l33-27-88 0z m138-59l0-223-29-25-68 62c-19 14-46 15-66-1l-63-59-30 27 0 219z m-332-126l44 44 0-109-58 51 13 14z"/>
<glyph glyph-name="simple-line-icons-38" unicode="&#77;" d="M453 156c-19 23-44 55-44 88l0 104c0 90-68 163-154 163-86 0-153-73-153-163l0-104c0-33-27-63-45-87-16-21-28-38-20-54 8-15 26-17 42-17l91 0c0-47 38-85 86-85 47 0 85 38 85 85l94 0c9 0 32 0 40 16 8 17-5 33-22 54z m-197-122c-29 0-52 23-52 52l103 0c0-29-23-52-51-52z m179 86l-356 0c-3 0-5 0-7 0 4 5 8 12 12 17 20 26 52 63 52 107l0 104c0 71 52 129 119 129 67 0 120-58 120-129l0-104c0-45 30-83 51-110 4-4 9-9 12-14-1 0-2 0-3 0z"/>
<glyph glyph-name="simple-line-icons-39" unicode="&#78;" d="M511 92l-94 173c9 22 15 46 15 71 0 97-79 176-176 176-97 0-176-79-176-176 0-26 6-50 16-72l-94-172c-4-5-3-12 1-17 4-5 10-8 16-6l80 18 28-76c2-6 7-10 14-11 0 0 1 0 1 0 6 0 11 3 14 9l82 152c6-1 12-1 18-1 5 0 11 0 16 1l84-153c3-5 8-8 14-8 0 0 1 0 1 0 7 1 12 5 14 11l28 76 80-18c6-2 12 1 16 6 4 5 5 11 2 17z m-366-37l-20 56c-3 8-11 12-19 11l-59-14 67 123c23-30 54-52 91-63z m-33 281c0 79 65 144 144 144 79 0 144-65 144-144 0-79-65-144-144-144-79 0-144 65-144 144z m294-214c-8 1-16-3-19-11l-20-56-62 112c38 11 71 35 93 66l68-125z"/>
<glyph glyph-name="simple-line-icons-40" unicode="&#79;" d="M511 146l-42 76c0 0 0 0 0 0l-3 5c-1 3-4 5-7 6-3 0-6 0-8-2l-5-3c0 0-1 0-1 0l-72-49c-6-4-8-11-4-17l3-3c3-6 10-6 16-3l43 30c-10-83-77-147-159-154l0 321 64 0c9 0 16 7 16 16 0 8-7 16-16 16l-65 0c0 0 0 0 0 1 28 6 50 32 50 63 0 35-29 64-65 64-35 0-64-29-64-64 0-31 21-56 49-63 0-1 0-1 0-1l-65 0c-9 0-16-8-16-16 0-9 7-16 16-16l64 0 0-321c-82 7-149 71-159 154l43-30c5-3 13-3 16 3l3 3c4 6 2 13-4 17l-72 49c0 0-1 0-1 0l-5 3c-2 2-5 2-8 2-3-1-6-3-7-6l-3-5c0 0 0 0 0 0l-42-76c-3-5-1-13 4-16l5-2c5-3 12 0 15 5l24 45c15-102 103-179 207-179 104 0 192 77 207 179l24-45c3-5 10-8 15-5l5 2c5 3 7 11 4 16z m-287 303c0 17 14 32 32 32 18 0 33-15 33-32 0-18-15-33-33-33-18 0-32 15-32 33z"/>
<glyph glyph-name="simple-line-icons-41" unicode="&#80;" d="M512 367c0 12-3 39-39 49l-358 72-3 0c-27 0-48-21-48-48l0-64-16 0c-27 0-48-22-48-48l0-256c0-27 21-48 48-48l416 0c27 0 48 21 48 48z m-416 73c0 8 6 15 14 16l353-71c0 0-2-9-15-9l-352 0z m384-368c0-9-7-16-16-16l-416 0c-9 0-16 7-16 16l0 256c0 9 7 16 16 16l400 0c16 0 32 5 32 16l0-288z m-384 160c-18 0-32-15-32-32 0-18 14-32 32-32 18 0 32 14 32 32 0 17-14 32-32 32z"/>
<glyph glyph-name="simple-line-icons-42" unicode="&#81;" d="M496 176l-16 0 0 1c0 81-43 152-108 191l80 0c6-10 16-16 28-16 18 0 32 14 32 32 0 18-14 32-32 32-12 0-22-6-28-16l-148 0 0 16c0 9-7 16-16 16l-64 0c-9 0-16-7-16-16l0-16-148 0c-6 10-16 16-28 16-18 0-32-14-32-32 0-18 14-32 32-32 12 0 22 6 28 16l80 0c-65-39-108-110-108-191l0-1-16 0c-9 0-16-7-16-16l0-64c0-9 7-16 16-16l64 0c9 0 16 7 16 16l0 64c0 9-7 16-16 16l-16 0 0 1c0 89 61 164 144 186l0-11c0-9 7-16 16-16l64 0c9 0 16 7 16 16l0 11c83-22 144-97 144-186l0-1-16 0c-9 0-16-7-16-16l0-64c0-9 7-16 16-16l64 0c9 0 16 7 16 16l0 64c0 9-7 16-16 16z m-432-64l-32 0 0 32 32 0z m208 256l-32 0 0 32 32 0z m208-256l-32 0 0 32 32 0z"/>
<glyph glyph-name="simple-line-icons-43" unicode="&#82;" d="M480 480l-448 0c-18 0-32-14-32-32l0-289c0-17 14-32 32-32l64 0 0-79c0-7 4-12 10-15 2-1 4-1 6-1 4 0 8 1 11 4l92 91 265 0c18 0 32 15 32 32l0 289c0 18-14 32-32 32z m0-321l-278 0-74-73 0 73-96 0 0 289 448 0z m-368 128l288 0c9 0 16 8 16 16 0 9-7 16-16 16l-288 0c-9 0-16-7-16-16 0-8 7-16 16-16z m0 64l288 0c9 0 16 8 16 16 0 9-7 16-16 16l-288 0c-9 0-16-7-16-16 0-8 7-16 16-16z m0-128l192 0c9 0 16 8 16 16 0 9-7 16-16 16l-192 0c-9 0-16-7-16-16 0-8 7-16 16-16z"/>
<glyph glyph-name="simple-line-icons-44" unicode="&#83;" d="M256 0c-10 0-20 4-27 11l-218 218c-15 15-15 39 0 54l80 80c5 5 12 6 19 3 6-3 9-10 8-17-1-5-1-8-1-12 0-35 28-64 63-64 35 0 61 29 61 64 0 35-26 64-61 64-3 0-7-1-11-1-7-2-14 2-17 8-4 6-2 14 3 19l74 74c15 15 40 15 54 0l54-54c12 35 45 61 84 61 49 0 88-40 88-88 0-39-25-73-61-84l53-53c15-15 15-39 0-54l-218-218c-7-7-17-11-27-11z m-169 314l-54-54c-2-2-2-6 1-8l218-218c3-3 5-3 8 0l218 218c3 2 3 6 0 8l-76 77c-5 5-7 13-4 19 3 6 10 9 17 9l2-1c1 0 3 0 4 0 31 0 56 25 56 56 0 31-25 56-56 56-31 0-56-25-56-56 0-1 0-3 1-4l0-3c1-7-3-13-9-16-6-3-13-2-18 3l-79 79c-3 3-5 3-8 0l-49-49c42-10 70-48 70-93 0-52-40-96-93-96-45 0-82 32-93 73z"/>
<glyph glyph-name="simple-line-icons-45" unicode="&#84;" d="M476 385l-60 0 0 127-320 0 0-127-60 0c-20 0-36-16-36-36l0-217c0-20 16-36 36-36l60 0 0-96 320 0 0 96 60 0c20 0 36 16 36 36l0 217c0 20-16 36-36 36z m-348 95l256 0 0-95-256 0z m256-448l-256 0 0 176 256 0z m96 100c0-2-2-4-4-4l-60 0 0 112-320 0 0-112-60 0c-2 0-4 2-4 4l0 217c0 2 2 4 4 4l440 0c2 0 4-2 4-4z m-64 188l-16 0c-9 0-16-7-16-16 0-9 7-16 16-16l16 0c9 0 16 7 16 16 0 9-7 16-16 16z"/>
<glyph glyph-name="simple-line-icons-46" unicode="&#85;" d="M512 352c0 17-14 32-32 32l-55 0c15 14 24 32 24 54 0 28-16 58-61 58-59 0-108-62-131-97-23 35-74 97-133 97-44 0-60-30-60-58 0-22 9-40 24-54l-56 0c-18 0-32-15-32-32l0-96 32 0 0-208c0-18 15-32 32-32l384 0c18 0 32 14 32 32l0 208 32 0z m-124 112c20 0 29-8 29-26 0-35-40-54-77-54l-55 0c23 34 63 80 103 80z m-264 0c40 0 82-46 105-80l-55 0c-37 0-78 19-78 55 0 17 9 25 28 25z m356-176l-208 0 0 64 208 0z m-448 64l208 0 0-64-208 0z m32-96l176 0 0-208-176 0z m384-208l-176 0 0 208 176 0z"/>
<glyph glyph-name="simple-line-icons-47" unicode="&#86;" d="M17 480l224 0c9 0 16 7 16 16 0 9-7 16-16 16l-224 0c-9 0-16-7-16-16 0-9 7-16 16-16z m0-96l224 0c9 0 16 7 16 16 0 9-7 16-16 16l-224 0c-9 0-16-7-16-16 0-9 7-16 16-16z m240-80c0 9-7 16-16 16l-224 0c-9 0-16-7-16-16 0-9 7-16 16-16l224 0c9 0 16 7 16 16z m249 46l-156 156c-5 5-12 6-18 3-7-2-11-8-11-15l0-354c-17 12-39 20-64 20-53 0-96-36-96-80 0-44 43-80 96-80 53 0 96 36 96 80 0 2 0 4 0 6l0 372 131-131c6-6 16-6 22 0 7 6 7 16 0 23z m-185-272c-1-22-27-46-64-46-38 0-64 25-64 48 0 23 26 48 64 48 37 0 63-24 64-46z"/>
<glyph glyph-name="simple-line-icons-48" unicode="&#87;" d="M507 322l-184 185c-4 4-9 6-15 4-5-1-10-5-11-10-11-36-13-68-4-98-1 0-2-1-2-2l-86-85c-28 13-57 20-87 20-19 0-37-3-55-9-5-1-9-6-10-11-2-5 0-11 4-15l109-110-153-156-13-35 32 13 157 155 111-112c3-3 7-4 11-4 1 0 3 0 4 0 5 2 10 6 11 11 15 47 11 97-10 142l88 87c0 0 0 1 0 1 14-4 27-6 41-6 18 0 37 3 56 9 5 1 9 6 11 11 1 5-1 11-5 15z m-205-222l-202 203c52 6 108-15 148-56 40-40 60-95 54-147z m-2 134c-8 13-18 25-29 36-12 11-24 21-37 30l72 72c8-13 17-25 29-37 12-12 24-21 37-29z m57 124c-30 31-42 65-36 106l143-144c-41-6-75 6-107 38z"/>
<glyph glyph-name="simple-line-icons-49" unicode="&#88;" d="M480 472l-448 0c-18 0-32-14-32-32l0-368c0-18 14-32 32-32l448 0c18 0 32 14 32 32l0 368c0 18-14 32-32 32z m0-400l-448 0 0 94 128 125 133-133c5-6 15-5 22 0l58 53 106-108c0-1 1-1 1-1z m0 75l-94 96c-6 6-15 7-21 2l-60-53-133 131c-3 4-7 6-11 6-4 0-9-1-12-4l-117-114 0 229 448 0z m-112 165c18 0 32 14 32 32 0 17-14 32-32 32-18 0-32-15-32-32 0-18 14-32 32-32z"/>
<glyph glyph-name="simple-line-icons-50" unicode="&#89;" d="M497 444l-161 67-160-63-161 63c-1 0-2 1-4 1-6 0-11-5-11-13l0-415c0-8 7-18 15-20l162-64 159 65 161-63c1 0 2 0 4 0 6 0 11 4 11 12l0 410c0 9-7 18-15 20z m-305-23l128 51 0-381-128-51z m-160 48l128-48 0-381-128 53z m448-426l-128 48 0 380 128-55z"/>
<glyph glyph-name="simple-line-icons-51" unicode="&#90;" d="M11 361l237-129c3-2 5-2 8-2 3 0 5 0 8 2l240 129c5 3 8 8 8 14 0 6-3 12-9 14l-237 121c-5 2-10 2-15 0l-240-121c-5-2-8-8-8-14-1-6 3-11 8-14z m248 117l203-103-206-111-203 111z m242-206l-48 24-34-19 40-20-206-111-203 111 43 21-34 19-50-25c-6-3-9-8-9-14 0-6 3-12 8-14l238-130c2-1 5-2 7-2 3 0 6 1 8 2l240 130c5 2 8 8 8 14 0 6-3 11-8 14z m0-112l-45 22-35-19 38-18-206-111-203 111 40 18-34 19-47-22c-6-3-9-8-9-14 0-6 3-12 8-14l238-130c2-1 5-2 7-2 3 0 6 1 8 2l240 129c5 3 8 9 8 15 0 6-3 11-8 14z"/>
<glyph glyph-name="simple-line-icons-52" unicode="&#48;" d="M511 41l-41 252c-4 32-34 59-67 59l-35 0 0 42c0 66-46 118-112 118-65 0-112-52-112-118l0-42-38 0c-33 0-63-27-67-59l-38-252c-2-13 1-24 7-31 7-7 16-10 27-10l437 0c17 0 26 6 31 12 5 5 10 14 8 29z m-335 353c0 48 33 86 80 86 48 0 80-38 80-86l0-42-160 0z m298-362l-437 0c-2 0-5 1-5 5l39 252c2 17 18 31 35 31l38 0 0-37c-10-5-16-15-16-27 0-18 14-32 32-32 18 0 32 14 32 32 0 12-6 22-16 27l0 37 160 0 0-37c-10-5-16-15-16-27 0-18 14-32 32-32 18 0 32 14 32 32 0 12-6 22-16 27l0 37 35 0c17 0 33-14 35-32l42-252c0-2-2-4-6-4z"/>
<glyph glyph-name="simple-line-icons-53" unicode="&#49;" d="M465 305c0 84-45 161-119 205-8 4-18 2-22-6-5-8-2-18 6-22 64-38 103-104 103-177 0-121-88-209-209-209-28 0-54 5-79 15-8 3-17-1-20-9-4-8 0-18 8-21 29-11 59-17 91-17 0 0 0 0 0 0l0-32-47 0c-9 0-16-7-16-16 0-9 7-16 16-16l127 0c9 0 17 7 17 16 0 9-8 16-17 16l-48 0 0 34c123 14 209 110 209 239z m-65-2c0 98-79 177-177 177-97 0-176-79-176-177 0-97 79-175 176-175 98 0 177 78 177 175z m-321 0c0 80 65 145 144 145 80 0 145-65 145-145 0-79-65-143-145-143-79 0-144 64-144 143z"/>
<glyph glyph-name="simple-line-icons-54" unicode="&#50;" d="M513 256c0 136-107 248-242 256-2 0-5 0-8 0-1 0-2 0-3 0-1 0-2 0-4 0-141 0-257-115-257-256 0-141 116-256 257-256 2 0 3 0 5 0 0 0 1 0 2 0 3 0 6 0 8 0 135 8 242 120 242 256z m-48-82c-9 2-31 8-70 12 3 22 5 46 5 70 0 19-1 38-3 56 49 5 71 13 72 13l-6 17c11-26 18-55 18-86 0-29-6-57-16-82z m-322 82c0 18 1 35 3 52 26-2 57-3 94-4l0-111c-36 0-66-2-92-3-3 21-5 43-5 66z m128 222c40-11 73-66 88-138-24-2-53-4-88-4z m-31-1l0-141c-35 1-64 2-89 4 16 71 50 125 89 137z m0-316l0-126c-37 11-69 59-85 123 24 2 52 3 85 3z m31-127l0 127c33 0 62-1 85-3-16-65-48-113-85-124z m0 159l0 111c37 1 68 2 94 4 2-17 3-34 3-52 0-23-2-45-5-67-26 2-56 4-92 4z m186 162c-4-1-25-7-65-12-9 48-25 89-47 119 49-22 89-60 112-107z m-278 112c-26-30-47-73-59-124-36 4-58 8-66 10 25 53 70 94 125 114z m-137-144c6-1 29-7 73-12-3-18-4-36-4-55 0-24 2-47 6-69-37-4-60-9-70-12-10 25-16 53-16 81 0 23 4 46 11 67z m19-177c11 2 32 6 63 9 12-45 32-83 55-110-50 19-92 55-118 101z m284-96c19 27 35 63 44 105 32-4 52-8 62-11-24-41-61-74-106-94z"/>
<glyph glyph-name="simple-line-icons-55" unicode="&#51;" d="M112 456l-96 0c-9 0-16-7-16-16l0-96c0-9 7-16 16-16 9 0 16 7 16 16l0 80 80 0c9 0 16 7 16 16 0 9-7 16-16 16z m384-272c-9 0-16-7-16-16l0-80-80 0c-9 0-16-7-16-16 0-9 7-16 16-16l96 0c9 0 16 7 16 16l0 96c0 9-7 16-16 16z m-384-96l-80 0 0 80c0 9-7 16-16 16-9 0-16-7-16-16l0-96c0-9 7-16 16-16l96 0c9 0 16 7 16 16 0 9-7 16-16 16z m384 368l-96 0c-9 0-16-7-16-16 0-9 7-16 16-16l80 0 0-80c0-9 7-16 16-16 9 0 16 7 16 16l0 96c0 9-7 16-16 16z"/>
<glyph glyph-name="simple-line-icons-56" unicode="&#52;" d="M480 408l-240 0-48 48-160 0c-18 0-32-14-32-32l0-80 0 0 0-32 0 0 0-224c0-18 14-32 32-32l448 0c18 0 32 14 32 32l0 288c0 18-14 32-32 32z m-448 16l145 0 40-39 10-9 253 0 0-32-448 0 0 80z m0-336l0 224 448 0 0-224z"/>
<glyph glyph-name="simple-line-icons-57" unicode="&#53;" d="M400 376l32 0c9 0 16 7 16 16l0 16c0 9-7 16-16 16l-32 0c-9 0-16-7-16-16l0-16c0-9 7-16 16-16z m0-96l32 0c9 0 16 7 16 16l0 16c0 9-7 16-16 16l-32 0c-9 0-16-7-16-16l0-16c0-9 7-16 16-16z m0-96l32 0c9 0 16 7 16 16l0 16c0 9-7 16-16 16l-32 0c-9 0-16-7-16-16l0-16c0-9 7-16 16-16z m0-96l32 0c9 0 16 7 16 16l0 16c0 9-7 16-16 16l-32 0c-9 0-16-7-16-16l0-16c0-9 7-16 16-16z m-320 288l32 0c9 0 16 7 16 16l0 16c0 9-7 16-16 16l-32 0c-9 0-16-7-16-16l0-16c0-9 7-16 16-16z m0-96l32 0c9 0 16 7 16 16l0 16c0 9-7 16-16 16l-32 0c-9 0-16-7-16-16l0-16c0-9 7-16 16-16z m0-96l32 0c9 0 16 7 16 16l0 16c0 9-7 16-16 16l-32 0c-9 0-16-7-16-16l0-16c0-9 7-16 16-16z m0-96l32 0c9 0 16 7 16 16l0 16c0 9-7 16-16 16l-32 0c-9 0-16-7-16-16l0-16c0-9 7-16 16-16z m400 416l-448 0c-18 0-32-14-32-32l0-432c0-18 14-32 32-32l448 0c18 0 32 14 32 32l0 432c0 18-14 32-32 32z m0-464l-448 0 0 432 448 0z"/>
<glyph glyph-name="simple-line-icons-58" unicode="&#54;" d="M51 347c-9 0-16-7-16-17 0-9 7-16 16-16 151 0 263-112 263-264 0-9 7-16 16-16 9 0 16 7 16 16 0 171-125 297-295 297z m0 164c-9 0-16-8-16-17 0-9 7-16 16-16 235 0 426-191 426-426 0-9 8-17 17-17 9 0 16 8 16 17 0 253-206 459-459 459z m41-329c-50 0-90-40-90-90 0-50 40-91 90-91 50 0 90 41 90 91 0 50-40 90-90 90z m0-149c-32 0-59 26-59 59 0 32 27 59 59 59 32 0 59-27 59-59 0-33-27-59-59-59z"/>
<glyph glyph-name="simple-line-icons-59" unicode="&#55;" d="M512 226c0 10-2 50-3 61-15 131-120 225-252 225-136 0-247-105-254-245-1-3-2-24-2-37l0-7c-1-3-1-6-1-9l0-108c0-23 19-42 43-42l43 0c23 0 42 19 42 42l0 108c0 23-19 42-42 42l-43 0c-3 0-6 0-9-1 0 5 0 9 0 11 7 122 104 214 223 214 115 0 208-82 220-196 1-5 1-17 2-29-3 1-6 1-10 1l-42 0c-24 0-43-19-43-42l0-107c0-17 9-30 23-38l-103-40 0 3c0 8-7 16-16 16l-48 0c-9 0-16-8-16-16l0-16c0-9 7-16 16-16l48 0c0 0 0 0 0 0l29 0 165 64c2 1 4 3 5 4 15 7 25 22 25 39l0 107c0 2 0 5-1 7 1 2 1 3 1 5z m-469-2l43 0c6 0 10-5 10-10l0-108c0-6-4-10-10-10l-43 0c-6 0-11 4-11 10l0 108c0 5 5 10 11 10z m373-10c0 5 5 10 11 10l42 0c6 0 11-5 11-10l0-107c0-6-5-11-11-11l-42 0c-6 0-11 5-11 11z"/>
<glyph glyph-name="simple-line-icons-60" unicode="&#56;" d="M512 210c0 10-2 50-3 61-15 131-120 225-252 225-136 0-247-105-254-245-1-3-2-24-2-37l0-7c-1-3-1-6-1-9l0-140c0-23 19-42 43-42l43 0c23 0 42 19 42 42l0 139c0 24-19 43-42 43l-43 0c-3 0-6 0-9-1 0 5 0 9 0 11 7 122 104 214 223 214 115 0 208-82 220-196 1-5 1-17 2-29-3 1-6 1-10 1l-42 0c-24 0-43-19-43-43l0-138c0-24 19-43 43-43l42 0c24 0 43 19 43 43l0 138c0 3 0 6-1 8 1 2 1 3 1 5z m-469-2l43 0c6 0 10-5 10-11l0-139c0-6-4-10-10-10l-43 0c-6 0-11 4-11 10l0 139c0 6 5 11 11 11z m437-149c0-6-5-11-11-11l-42 0c-6 0-11 5-11 11l0 138c0 6 5 11 11 11l42 0c6 0 11-5 11-11z"/>
<glyph glyph-name="simple-line-icons-61" unicode="&#57;" d="M255 1c-96 0-175 77-175 173 0 111 156 322 162 331 3 4 8 6 13 6 6 0 10-2 13-6 7-9 164-216 164-331 0-96-79-173-177-173z m0 467c-37-53-143-211-143-294 0-78 64-141 143-141 80 0 145 63 145 141 0 86-107 242-145 294z"/>
<glyph glyph-name="simple-line-icons-62" unicode="&#33;" d="M511 257l-58 204c-2 6-8 11-16 11l-367 0c-8 0-14-5-16-12l-54-193c-1-4 0-7 1-11 0-2-1-5-1-9l0-175c0-18 14-32 32-32l448 0c18 0 32 14 32 32l0 175c0 1 0 2 0 3 0 2 0 5-1 7z m-429 183l343 0 47-161-149 0c-1-38-28-64-67-64-39 0-65 26-66 64l-153 0z m398-368l-448 0 0 175 132 0c14-40 47-64 92-64 45 0 79 24 93 64l131 0z"/>
<glyph glyph-name="simple-line-icons-63" unicode="&#34;" d="M384 512l-176 0c-18 0-32-14-32-32l176 0 0-128 128 0 0-256-112 0 0-32 112 0c18 0 32 14 32 32l0 288z m0-128l0 83 83-83z m-352 64c-18 0-32-14-32-32l0-384c0-18 14-32 32-32l272 0c18 0 32 14 32 32l0 288-128 128z m272-416l-272 0 0 384 144 0 0-128 128 0z m-96 288l0 83 83-83z"/>
<glyph glyph-name="simple-line-icons-64" unicode="&#35;" d="M509 419l-50 56c-3 3-8 5-12 5l-175 0 0 17c0 8-8 15-16 15-9 0-16-7-16-15l0-17-128 0c-9 0-16-7-16-16l0-112c0-9 7-16 16-16l128 0 0-32-175 0c-4 0-9-2-12-5l-50-57c-5-6-5-15 0-21l50-56c3-4 8-5 12-5l175 0 0-145c0-8 7-15 16-15 8 0 16 7 16 15l0 145 128 0c9 0 16 7 16 16l0 112c0 9-7 16-16 16l-128 0 0 32 175 0c4 0 9 2 12 6l50 56c5 6 5 15 0 21z m-125-227l-312 0-35 39 35 41 312 0z m56 176l-312 0 0 80 312 0 35-40z"/>
<glyph glyph-name="simple-line-icons-65" unicode="&#36;" d="M483 363l-89 96c-3 3-7 5-12 5l-133 0-1 33c0 8-7 15-16 15-9 0-15-7-15-15l0-33-177 0c-9 0-16-7-16-16l0-192c0-9 7-16 16-16l176 0 0-225c0-8 8-15 16-15 9 0 16 7 16 15l0 225 134 0c5 0 9 2 12 5l89 96c6 6 6 16 0 22z m-108-91l-319 0 0 160 319 0 75-80z"/>
<glyph glyph-name="simple-line-icons-66" unicode="&#37;" d="M509 364l-70 134c-4 8-14 14-23 14l-161 0c0 0 0 0 0 0-1 0-1 0-1 0l-158 0c-9 0-19-6-24-14l-69-131c-4-8-4-20 2-27l240-335c2-3 6-5 9-5 3 0 7 2 9 5l244 332c6 7 6 19 2 27z m-38 4l-86 0 35 98z m-183 112l103 0-32-91z m46-112l-149 0 71 101z m-177 15l-32 97 99 0z m183-47l-86-246-81 246z m-122-240l-172 240 93 0z m156 240l93 0-177-240z m-280 135l34-103-88 0z"/>
<glyph glyph-name="simple-line-icons-67" unicode="&#38;" d="M416 304c-4 0-17 0-32 0l0 32c0 18-14 32-32 32l-320 0c-18 0-32-14-32-32l0-240c0-53 43-96 96-96l192 0c53 0 96 43 96 96l0 16c14 0 29 0 32 0 53 0 96 43 96 96 0 53-43 96-96 96z m-64-208c0-35-28-64-64-64l-192 0c-35 0-64 29-64 64l0 240 0 0 320 0z m64 48c-3 0-18 0-32 0l0 128c15 0 28 0 32 0 37 0 65-27 65-64 0-37-28-64-65-64z m-128 256c9 0 16 7 16 16l0 80c0 9-7 16-16 16-9 0-16-7-16-16l0-80c0-9 7-16 16-16z m-192 0c9 0 16 7 16 16l0 80c0 9-7 16-16 16-9 0-16-7-16-16l0-80c0-9 7-16 16-16z m96 0c9 0 16 7 16 16l0 80c0 9-7 16-16 16-9 0-16-7-16-16l0-80c0-9 7-16 16-16z"/>
<glyph glyph-name="simple-line-icons-68" unicode="&#39;" d="M367 372l-157-67c-3-2-5-4-7-7l-71-145c-3-5-2-12 2-17 3-3 7-5 11-5 2 0 5 1 7 2l153 63c2 2 5 4 6 7l76 148c3 6 2 13-3 18-4 5-12 6-17 3z m-188-192l43 88 44-55z m113 52l-44 56 88 35z m-36 280c-141 0-256-115-256-256 0-141 115-256 256-256 141 0 256 115 256 256 0 141-115 256-256 256z m0-481c-124 0-224 101-224 225 0 124 100 224 224 224 124 0 224-100 224-224 0-124-100-225-224-225z"/>
<glyph glyph-name="simple-line-icons-69" unicode="&#40;" d="M500 126c-8 6-93 63-104 69-4 3-10 4-16 4-8 0-17-2-25-6-8-5-33-19-46-26-10 8-36 27-75 67-40 39-60 65-67 76 7 12 21 37 25 45 8 16 9 31 3 42-6 9-63 95-69 104-6 7-15 11-26 11-9 0-18-2-25-8-1 0-77-55-76-86 3-87 88-190 159-260 70-71 173-156 260-158l1 0c31 0 85 74 85 75 14 20 9 42-4 51z m-22-33c-20-28-49-57-60-61-60 3-145 55-238 148-93 94-146 178-148 238 4 11 33 40 61 60 2 2 4 2 7 2 0 0 1 0 1 0 9-13 57-86 66-100 0-1 0-5-3-10-3-6-12-22-25-44l-10-18 12-17c8-12 29-39 70-80 41-41 68-62 80-70l17-12 17 10c17 10 38 22 45 25 5 3 9 3 10 3 0 0 0 0 0 0 13-7 87-57 100-66 1-1 0-4-2-8z m-136 228l138 137-1-78c0-6 5-12 12-12l8 0c6 0 12 4 12 11l0 115c0 0 0 0 0 0l0 6c0 4 0 6-3 9-2 2-4 3-8 3l-6 0c0 0 0 0 0 0l-115 0c-6 0-11-5-12-12l0-8c1-8 7-12 14-12l75 0-137-137c-6-6-6-16 0-22 7-6 17-6 23 0z"/>
<glyph glyph-name="simple-line-icons-70" unicode="&#41;" d="M500 126c-8 6-93 63-104 69-4 3-10 4-16 4-8 0-17-2-25-6-8-5-33-19-46-26-10 8-36 27-75 67-40 39-60 65-67 76 7 12 21 37 25 45 8 16 9 31 3 42-6 9-63 95-69 104-6 7-15 11-26 11-9 0-18-2-25-8-1 0-77-55-76-86 3-87 88-190 159-260 70-71 173-156 260-158l1 0c31 0 85 74 85 75 14 20 9 42-4 51z m-22-33c-20-28-49-57-60-61-60 3-145 55-238 148-93 94-146 178-148 238 4 11 33 40 61 60 2 2 4 2 7 2 0 0 1 0 1 0 9-13 57-86 66-100 0-1 0-5-3-10-3-6-12-22-25-44l-10-18 12-17c8-12 29-39 70-80 41-41 68-62 80-70l17-12 17 10c17 10 38 22 45 25 5 3 9 3 10 3 0 0 0 0 0 0 13-7 87-57 100-66 1-1 0-4-2-8z m-156 231c2-2 5-4 8-4l6 1c0 0 0 0 0 0l115-1c6 0 12 6 12 12l0 8c-1 8-7 12-13 12l-76 0 131 131c6 7 6 17 0 23-6 6-17 6-23 0l-131-131 0 77c0 7-5 12-11 12l-8 0c-7 0-12-4-12-10l-1-116c0 0 1 0 1 0l-1-6c0-3 1-6 3-8z"/>
<glyph glyph-name="simple-line-icons-71" unicode="&#42;" d="M481 412c0 0 0-1 0-1-13-9-86-57-100-66-2 0-5 0-10 3-6 3-22 12-45 25l-18 10-16-12c-13-8-39-29-80-70-41-41-62-68-71-80l-11-17 10-17c9-17 21-38 25-45 3-5 3-9 3-10 0 0 0 0 0 0-8-13-58-87-67-100-1-1-4-1-7 2-28 20-58 49-62 60 3 60 56 145 149 238 93 93 177 146 237 148 11-4 40-33 61-61 1-2 2-4 2-7m31 0c0 9-3 18-8 25-1 1-54 77-85 76-88-3-190-88-261-159-70-70-155-173-158-260l0-1c0-31 74-85 75-85 20-14 43-9 52 4 5 8 62 93 69 104 2 4 4 10 4 16 0 8-3 17-7 25-4 8-19 33-26 46 8 10 27 36 67 75 40 40 65 60 76 67 12-7 37-21 46-25 15-8 31-9 41-3 10 6 95 63 103 69 8 6 12 15 12 26z"/>
<glyph glyph-name="simple-line-icons-72" unicode="&#43;" d="M480 512l-448 0c-18 0-32-14-32-32l0-448c0-18 14-32 32-32l448 0c18 0 32 14 32 32l0 448c0 18-14 32-32 32z m0-480l-448 0 0 448 448 0z m-368 304l32 0 0-32c0-9 7-16 16-16 9 0 16 7 16 16l0 32 32 0c9 0 16 7 16 16 0 9-7 16-16 16l-32 0 0 32c0 9-7 16-16 16-9 0-16-7-16-16l0-32-32 0c-9 0-16-7-16-16 0-9 7-16 16-16z m105-120c-7 7-17 7-23 0l-34-34-34 34c-6 7-16 7-23 0-6-6-6-16 0-22l34-34-34-34c-6-6-6-16 0-23 7-6 17-6 23 0l34 34 34-34c6-6 16-6 23 0 6 7 6 17 0 23l-34 34 34 34c6 6 6 16 0 22z m87 120l96 0c9 0 16 7 16 16 0 9-7 16-16 16l-96 0c-9 0-16-7-16-16 0-9 7-16 16-16z m0-160l96 0c9 0 16 7 16 16 0 9-7 16-16 16l-96 0c-9 0-16-7-16-16 0-9 7-16 16-16z m0-64l96 0c9 0 16 7 16 16 0 9-7 16-16 16l-96 0c-9 0-16-7-16-16 0-9 7-16 16-16z"/>
<glyph glyph-name="simple-line-icons-73" unicode="&#44;" d="M212 172c116 0 205 66 204 164 0 87-92 156-207 156-116 0-209-69-209-156 0-54 26-111 82-140 0 0-1 0-1 0 0-24-19-56-27-69l0 0c0-2-1-3-1-5 0-7 6-12 12-12 1 0 3 0 3 0 0 0 0 0 0 0 41 7 102 53 111 64 9-2 15-2 23-2 3 0 6 0 10 0z m-47 35l-20-17c-5-6-26-23-43-34 11 31 10 40 10 40l2 20-18 9c-44 23-64 70-64 111 0 69 79 124 177 124 98 0 175-55 175-124 0-76-73-132-171-132 0 0-14-1-30 2z m347 0c0 43-17 76-59 101-1-11-4-24-8-35 27-19 35-38 35-66 0-35-16-60-53-79l-16-8c0 0 1-41 4-51-31 23-42 42-42 42l-17-3c-7-1-25-1-25-1-43 0-75 11-103 32 8 1-44 1-45 0 31-39 83-64 148-64 4 0 7 0 10 0 6 0 12 1 20 2 7-10 51-51 86-57 0 0 0 0 0 0 1 0 2 0 3 0 6 0 10 5 10 10 0 2 0 3-1 4l0 0c-6 12-17 45-17 65 0 1 0 1 0 1 48 25 70 60 70 107z"/>
<glyph glyph-name="simple-line-icons-74" unicode="&#45;" d="M480 416l-128 0 0 31c0 27-21 48-48 48l-96 0c-26 0-48-21-48-48l0-31-128 0c-18 0-32-14-32-32l0-112 0 0 0-32 0 0 0-191c0-18 14-32 32-32l448 0c18 0 32 14 32 32l0 335c0 18-14 32-32 32z m-288 31c0 9 7 16 16 16l96 0c9 0 16-7 16-16l0-31-128 0z m-160-63l448 0 0-112-176 0 0 17c0 17-15 32-32 32l-32 0c-18 0-32-15-32-32l0-17-176 0z m240-176l-32 0 0 81 32 0z m-240-159l0 191 176 0 0-32c0-18 14-32 32-32l32 0c17 0 32 14 32 32l0 32 176 0 0-191z"/>
<glyph glyph-name="simple-line-icons-75" unicode="&#46;" d="M476 511l-211-57c-6-2-18-1-23 0l-206 57c-18 5-36-8-36-27l0-389c0-16 12-31 27-36l207-57c5-1 12-2 20-2 5 0 12 0 19 2l211 57c16 4 28 20 28 36l0 389c0 19-18 32-36 27z m-236-477l-204 56c-2 0-4 3-4 5l0 384 202-56c2 0 4-1 6-1z m240 61c0-2-2-4-4-5l-204-55 0 388c0 0 1 0 1 0l207 56 0-384z m-159 234c1 0 3 0 4 0l112 32c9 2 14 11 11 20-2 8-11 13-19 11l-112-32c-9-2-14-11-11-19 2-8 8-12 15-12z m0-96c1 0 3 0 4 0l112 32c9 2 14 11 11 20-2 8-11 13-19 11l-112-32c-9-2-14-11-11-19 2-8 8-12 15-12z m0-96c1 0 3 0 4 0l112 32c9 2 14 11 11 20-2 8-11 13-19 11l-112-32c-9-2-14-11-11-19 2-8 8-12 15-12z m-124 223l-112 32c-8 2-17-3-19-11-3-9 2-18 11-20l112-32c1 0 3 0 4 0 7 0 13 4 15 12 3 8-2 17-11 19z m0-96l-112 32c-8 2-17-3-19-11-3-9 2-18 11-20l112-32c1 0 3 0 4 0 7 0 13 4 15 12 3 8-2 17-11 19z m0-96l-112 32c-8 2-17-3-19-11-3-9 2-18 11-20l112-32c1 0 3 0 4 0 7 0 13 4 15 12 3 8-2 17-11 19z"/>
<glyph glyph-name="simple-line-icons-76" unicode="&#47;" d="M508 370c-3 4-8 7-13 7l-50 0-103 87c-12 13-32 13-45 0l-101-87-41 0-25 88c-11 35-34 39-44 39l-69 0c-9 0-16-7-16-16 0-9 7-16 16-16l69 0c2 0 8 0 13-15l88-325c2-7 9-12 16-12l216 0c6 0 12 4 15 11l76 224c2 5 1 11-2 15z m-188 72l76-65-152 0z m88-290l-193 0-51 193 308 0z m-32-64c-22 0-40-18-40-40 0-22 18-40 40-40 22 0 40 18 40 40 0 22-18 40-40 40z m-144 0c-22 0-40-18-40-40 0-22 18-40 40-40 22 0 40 18 40 40 0 22-18 40-40 40z"/>
<glyph glyph-name="simple-line-icons-77" unicode="&#58;" d="M508 370c-3 4-8 7-13 7l-340 0-25 88c-11 35-34 39-44 39l-69 0c-9 0-16-7-16-16 0-9 7-16 16-16l69 0c2 0 8 0 13-15l88-325c2-7 9-12 16-12l216 0c6 0 12 4 15 11l76 224c2 5 1 11-2 15z m-100-218l-193 0-51 193 308 0z m-32-64c-22 0-40-18-40-40 0-22 18-40 40-40 22 0 40 18 40 40 0 22-18 40-40 40z m-144 0c-22 0-40-18-40-40 0-22 18-40 40-40 22 0 40 18 40 40 0 22-18 40-40 40z"/>
<glyph glyph-name="simple-line-icons-78" unicode="&#59;" d="M432 433l-96 0 0 30c0 27-21 48-48 48l-63 0c-27 0-48-21-48-48l0-30-97 0c-18 0-32-15-32-32l0-368c0-18 14-32 32-32l352 0c18 0 32 14 32 32l0 368c0 17-14 32-32 32z m-223 30c0 9 7 16 16 16l63 0c9 0 16-7 16-16l0-30-95 0z m223-430l-352 0 0 368 97 0 0-33c0 0-1-16 15-16 18 0 17 16 17 16l0 33 95 0 0-33c0 0-1-16 16-16 16 0 16 16 16 16l0 33 96 0z"/>
<glyph glyph-name="simple-line-icons-79" unicode="&#60;" d="M495 41c0 0 0 0-1 0-8 0-13 6-13 14-1 6-17 150-242 150l0-92c0-6-3-12-9-14-5-3-12-2-17 2l-207 172c-4 3-6 7-6 12 0 5 2 9 6 12l207 171c5 3 12 4 17 2 6-3 9-9 9-15l0-90c93-3 166-32 213-87 76-89 59-218 58-224-1-7-7-13-15-13z m-272 196c0 0 1 0 1 0 160 0 221-54 256-102-5 38-20 85-53 122-43 50-112 77-204 77-8 0-16 7-16 16l0 72-166-137 166-138 0 74c0 4 2 8 5 11 3 3 7 5 11 5z"/>
<glyph glyph-name="simple-line-icons-80" unicode="&#61;" d="M17 41c0 0 0 0 1 0 8 0 13 6 13 14 1 6 17 150 241 150l1-92c0-6 3-12 9-14 5-3 12-2 17 2l207 172c4 3 6 7 6 12 0 5-2 9-6 12l-207 171c-5 3-12 4-17 2-6-3-9-9-9-15l-1-90c-93-3-165-32-212-87-76-89-59-218-58-224 1-7 7-13 15-13z m272 196c0 0-1 0-1 0-160 0-221-54-256-102 5 38 20 85 53 122 43 50 112 77 204 77 8 0 16 7 16 16l0 72 166-137-166-138 0 74c0 4-2 8-5 11-3 3-7 5-11 5z"/>
<glyph glyph-name="simple-line-icons-81" unicode="&#62;" d="M32 65c0 12 10 16 13 18l141 66c10 5 17 15 18 26 2 11-3 22-11 28-34 27-49 86-49 117l0 80c0 33 58 80 112 80 54 0 112-46 112-80l0-80c0-31-13-90-47-117-9-7-14-17-12-29 1-11 8-20 18-25l48-23 8 32-42 20c44 35 59 104 59 142l0 80c0 53-73 112-144 112-71 0-144-59-144-112l0-80c0-35 16-106 61-142l-141-66c0 0-32-14-32-32l0-48c0-17 14-32 32-32l352 0 0 32-352 0z m464 31l-48 0 0 48c0 9-7 16-16 16-9 0-16-7-16-16l0-48-48 0c-9 0-16-7-16-16 0-9 7-16 16-16l48 0 0-48c0-9 7-16 16-16 9 0 16 7 16 16l0 48 48 0c9 0 16 7 16 16 0 9-7 16-16 16z"/>
<glyph glyph-name="simple-line-icons-82" unicode="&#63;" d="M512 257c0-9-7-16-16-16l-224 0 0-162c0-43-36-79-79-79-44 0-79 36-79 79 0 9 7 16 16 16 8 0 16-7 16-16 0-26 21-47 47-47 26 0 47 21 47 47l0 162-224 0c-9 0-16 7-16 16 0 124 90 202 240 207l0 32c0 9 7 16 16 16 9 0 16-7 16-16l0-32c149-5 240-83 240-207z m-32 16c-8 100-90 160-224 160-135 0-216-60-224-160l448 0z"/>
<glyph glyph-name="simple-line-icons-83" unicode="&#64;" d="M448 432l-112 0 0 44c0 20-17 36-37 36l-86 0c-20 0-37-16-37-36l0-44-112 0c-9 0-16-7-16-16 0-8 7-16 16-16l22 0 37-369c1-18 16-31 33-31l200 0c17 0 32 13 33 30l37 370 22 0c9 0 16 8 16 16 0 9-7 16-16 16z m-240 44c0 3 2 5 5 5l86 0c3 0 5-2 5-5l0-44-96 0z m149-443c0 0-1-1-1-1l-200 0c0 0-1 1-1 2l-37 366 276 0z"/>
<glyph glyph-name="simple-line-icons-84" unicode="&#91;" d="M512 304l0 169c0 22-17 39-39 39l-166 0-7 0c-10 0-27 0-38-11l-253-253c-6-6-9-14-9-22 0-9 3-17 9-23l194-194c6-6 14-9 23-9 8 0 16 3 22 9l253 253c11 11 11 27 11 42z m-33-19l-254-253-193 194 253 252c2 2 11 2 15 2l7 0 166 0c4 0 7-3 7-7l0-169c0-6 0-17-1-19z m-95 163c-35 0-64-29-64-64 0-35 29-64 64-64 35 0 64 29 64 64 0 35-29 64-64 64z m0-96c-18 0-32 14-32 32 0 18 14 32 32 32 18 0 32-14 32-32 0-18-14-32-32-32z"/>
<glyph glyph-name="simple-line-icons-85" unicode="&#93;" d="M256 512c-141 0-256-115-256-256 0-141 115-256 256-256 141 0 256 115 256 256 0 141-115 256-256 256z m64-41c72-22 129-79 150-151l-103 0c-12 19-28 35-47 47z m32-215c0-53-43-96-96-96-53 0-96 43-96 96 0 53 43 96 96 96 53 0 96-43 96-96z m-128 222c10 1 21 2 32 2 11 0 22-1 32-2l0-98c-10 2-21 4-32 4-11 0-22-2-32-4z m-32-7l0-104c-19-12-35-28-47-47l-103 0c21 72 78 129 150 151z m-160-215c0 11 1 22 3 32l97 0c-2-10-4-21-4-32 0-11 2-22 4-32l-97 0c-2 10-3 21-3 32z m160-215c-72 22-129 79-150 151l103 0c12-19 28-35 47-47z m96-7c-10-1-21-2-32-2-11 0-22 1-32 2l0 98c10-2 21-4 32-4 11 0 22 2 32 4z m32 7l0 104c19 12 35 28 47 47l103 0c-21-72-78-129-150-151z m60 183c2 10 4 21 4 32 0 11-2 22-4 32l97 0c2-10 3-21 3-32 0-11-1-22-3-32z"/>
<glyph glyph-name="simple-line-icons-86" unicode="&#94;" d="M343 320l138 137-1-77c0-7 5-12 12-12l8 0c6 0 12 4 12 10l0 116c0 0 0 0 0 0l0 6c0 3 0 6-3 8-2 2-4 3-8 3l-6 0c0 0 0 0 0 0l-115 1c-6 0-11-6-12-12l0-9c1-7 7-12 14-11l75-1-137-136c-6-6-6-16 0-23 7-6 17-6 23 0z m-173-128l-138-137 0 77c1 7-5 12-11 12l-9 0c-6 0-12-4-12-10l0-116c0 0 0 0 0 0l0-6c0-3 0-6 2-8 3-2 5-3 9-3l6 0c0 0 0 0 0 0l115-1c7 1 12 6 12 12l0 9c-1 7-7 12-13 11l-76 1 137 136c6 6 6 16 0 23-6 6-16 6-22 0z m342-174l0 116c0 6-6 10-12 10l-8 0c-7 0-12-5-12-12l1-77-138 137c-6 6-16 6-23 0-6-7-6-17 0-23l137-136-75-1c-7 1-13-4-14-11l0-9c1-6 6-11 12-12l115 1c0 0 0 0 0 0l6 0c4 0 6 1 9 3 2 2 2 5 2 8l0 6c0 0 0 0 0 0z m-457 461l76 1c6-1 12 4 13 11l0 9c0 6-5 12-12 12l-115-1c0 0 0 0 0 0l-6 0c-4 0-6-1-9-3-2-2-2-5-2-8l0-6c0 0 0 0 0 0l0-116c0-6 6-10 12-10l9 0c6 0 11 5 11 12l0 77 138-137c6-6 16-6 22 0 6 7 6 17 0 23z"/>
<glyph glyph-name="simple-line-icons-87" unicode="&#95;" d="M192 339l-1 115c0 7-5 10-12 11l-8 0c-6 0-11-6-11-12l0-78-133 132c-6 6-16 6-23 0-6-6-6-17 0-23l133-131-76 0c-6 0-12-5-13-12l0-8c0-7 5-12 12-12l115 0c0 0 0 0 0 0l6 0c3 0 6 1 8 3 2 2 3 5 3 8l-1 6c0 0 1 0 1 1z m131-15c2-2 5-3 8-3l6 0c0 0 0 0 0 0l115 0c7 0 12 5 12 12l0 8c-1 7-7 12-13 12l-76 0 133 131c6 6 6 17 0 23-7 6-17 6-23 0l-133-132 0 78c1 6-5 12-11 12l-8 0c-7-1-12-4-12-11l-1-115c0-1 1-1 1-1l-1-6c0-3 1-6 3-8z m-134-136c-2 2-5 4-8 4l-6-1c0 0 0 0 0 0l-115 1c-7 0-12-6-12-12l0-8c1-8 7-12 13-12l76 0-133-132c-6-6-6-17 0-23 7-6 17-6 23 0l133 132 0-78c-1-6 5-12 11-12l8 0c7 1 12 4 12 11l1 115c0 1-1 1-1 1l1 6c0 3-1 6-3 8z m186-28l76 0c6 0 12 4 13 12l0 8c0 6-5 12-12 12l-115 0c0 0 0 0 0 0l-7 0c-3 0-6-2-8-4-2-2-3-5-3-8l1-6c0 0-1 0-1-1l1-115c0-7 5-10 12-11l8 0c7 0 12 6 12 12l-1 78 134-132c6-6 16-6 23 0 6 6 6 17 0 23z"/>
<glyph glyph-name="simple-line-icons-88" unicode="&#96;" d="M201 259l20 28-67 91-153 0 0-32 136 0z m258 87l-38-34c-5-5-7-12-2-17l3-4c5-4 12-4 17 0l64 58c0 0 0 0 0 0l4 4c2 3 4 6 4 8 0 3-2 6-4 9l-4 4c0 0 0 0 0 0l-65 59c-5 4-12 4-17 0l-3-4c-5-4-3-12 2-16l38-35-116 0-205-288-136 0 0-32 153 0 204 288z m44-260c0 0 0 0 0 0l-65 59c-5 4-12 4-17 0l-3-4c-5-4-3-12 2-16l38-35-100 0-57 89-20-28 61-93 117 0-38-34c-5-5-7-12-2-17l3-4c5-4 12-4 17 0l64 58c0 0 0 0 0 0l4 4c2 3 4 6 4 8 0 3-2 6-4 9z"/>
<glyph glyph-name="simple-line-icons-89" unicode="&#123;" d="M451 37l-416 0 0 320 129 0 32 31-1 1-160 0c-18 0-32-14-32-32l0-320c0-17 14-32 32-32l416 0c18 0 32 15 32 32l0 251-32-31z m-316 128l32 0c23 128 134 224 267 224 6 0 11 0 17 0l-59-58c-6-7-6-17 0-23 3-3 7-5 11-5 4 0 8 2 12 5l94 97-94 97c-7 6-17 6-23 0-6-6-6-16 0-23l58-58c-5 0-10 0-15 0-152 0-277-111-300-256z"/>
<glyph glyph-name="simple-line-icons-90" unicode="&#124;" d="M432 160c-26 0-50-13-64-32l-211 107c2 7 3 14 3 21 0 9-2 18-4 26l211 103c15-20 38-33 65-33 44 0 80 36 80 80 0 44-36 80-80 80-44 0-80-36-80-80 0-6 1-12 2-18l-215-104c-14 16-35 26-59 26-44 0-80-36-80-80 0-44 36-80 80-80 25 0 48 12 63 30l211-107c-1-6-2-13-2-19 0-44 36-80 80-80 44 0 80 36 80 80 0 44-36 80-80 80z m0 320c27 0 48-21 48-48 0-27-21-48-48-48-27 0-48 21-48 48 0 27 21 48 48 48z m-352-272c-27 0-48 21-48 48 0 27 21 48 48 48 27 0 48-21 48-48 0-27-21-48-48-48z m352-176c-27 0-48 21-48 48 0 27 21 48 48 48 27 0 48-21 48-48 0-27-21-48-48-48z"/>
<glyph glyph-name="simple-line-icons-91" unicode="&#125;" d="M105 70c-10-21-17-34-73-36 2 53 12 59 33 70 9 4 19 9 31 18l-19 25c-10-7-18-11-26-15-35-17-51-34-51-114l0-16 16 0c85 0 101 19 117 52 3 7 5 12 11 22l-24 21c-7-9-11-19-15-27z m247 348c-35 0-64-29-64-64 0-36 29-65 64-65 36 0 65 29 65 65 0 35-29 64-65 64z m0-97c-17 0-32 15-32 33 0 17 15 32 32 32 18 0 33-15 33-32 0-18-15-33-33-33z m160 176c-1 8-7 15-15 15 0 0-89 7-176-25-31-12-57-31-81-59-20-23-40-66-58-101-7-14-13-27-19-37l-89 0c-5 0-9-2-12-5l-59-64c-3-4-5-10-3-15 2-6 6-10 12-11l95-22c7-8 18-20 35-39l36-40 20-83c1-5 5-9 10-11 2-1 4-1 5-1 4 0 8 1 11 4l59 59c3 3 6 7 6 12l0 83c7 5 22 12 35 20 36 20 90 45 113 65 31 28 43 49 54 79 27 72 21 172 21 176z m-51-165c-10-26-19-42-46-66-19-18-74-43-107-61-24-14-39-22-46-28-3-3-5-7-5-12l0-84-34-37-15 61c0 3-2 5-3 7-30 33-74 82-78 86-2 3-5 5-8 5l-74 17 36 38 91 0c6 0 11 3 14 8 7 11 15 28 25 46 16 32 36 75 53 95 21 25 42 40 69 50 59 22 120 24 147 24 1-30 0-98-19-149z"/>
<glyph glyph-name="simple-line-icons-92" unicode="&#126;" d="M256 512c-141 0-256-115-256-256 0-141 115-256 256-256 141 0 256 115 256 256 0 141-115 256-256 256z m0-481c-124 0-224 101-224 225 0 124 100 224 224 224 124 0 224-100 224-224 0-124-100-225-224-225z m-24 81l41 0 0 40-41 0z m24 288c-24 0-43-6-58-19-16-12-23-38-23-59l1-1 37 0c0 13 4 31 12 37 9 7 19 10 31 10 13 0 24-4 31-11 7-8 11-18 11-32 0-12-3-22-8-30-6-8-15-20-28-35-13-12-21-22-24-29-3-7-5-20-5-39l38 0c0 12 1 20 3 26 1 6 5 12 12 19 16 15 28 29 37 43 9 14 14 29 14 46 0 23-7 42-22 55-14 13-34 19-59 19z"/>
<glyph glyph-name="simple-line-icons-93" unicode="&#92;" d="M288 465c-9 0-16-7-16-16 0-9 7-16 16-16 113 0 192-82 192-196 0-113-92-205-205-205-114 0-196 82-196 195 0 9-7 16-16 16-9 0-16-7-16-16 0-131 97-227 228-227 131 0 237 106 237 237 0 131-93 228-224 228z m-48-177l0 208c0 9-7 16-16 16-124 0-224-100-224-224 0-9 7-16 16-16l208 0c9 0 16 7 16 16z m-32 16l-175 0c7 94 81 168 175 175z"/>
<glyph glyph-name="simple-line-icons-94" unicode="&#57344;" d="M482 487c-17 17-37 25-57 25-32 0-56-20-62-27-9-9-317-316-317-316-2-2-3-5-4-8-7-25-41-139-42-140-2-6 0-12 4-17 3-3 7-4 12-4 1 0 3 0 5 0 1 1 118 39 138 45 2 0 4 2 6 4 13 12 299 295 318 315 20 20 30 41 30 63-1 21-11 41-31 60z m-124-53c8-2 27-8 47-28 20-20 25-43 26-48-63-63-208-206-265-263-5 13-13 27-27 41-17 17-34 27-47 32 56 57 204 204 266 266z m-288-293c9-2 27-9 46-28 14-14 21-30 24-40-22-7-71-24-102-34 9 30 25 77 32 102z m390 246c0-1-2-2-3-3-5 13-14 29-29 45-16 16-32 25-44 31 1 1 1 2 2 2 2 2 18 18 39 18 12 0 24-6 35-17 13-12 20-25 20-37 0-12-6-25-20-39z"/>
<glyph glyph-name="simple-line-icons-95" unicode="&#57345;" d="M400 32l-368 0 0 400 224 0 33 31-1 1-256 0c-18 0-32-14-32-32l0-400c0-18 14-32 32-32l368 0c17 0 32 14 32 32l0 234-32-30z m87 459c-14 14-30 21-47 21-27 0-46-17-52-22-7-8-219-219-219-219-2-2-3-4-4-7-5-21-34-115-34-116-2-5-1-10 3-14 2-2 6-4 9-4 2 0 3 1 5 1 0 0 98 32 114 37 2 0 4 1 5 3 10 10 205 202 221 218 17 17 25 34 24 52 0 18-8 35-25 50z m-22-80c-9-9-78-78-207-204l-10-10c-15-5-50-16-77-25 9 29 19 63 24 79 27 28 209 209 216 216 1 1 14 13 29 13 8 0 17-4 25-12 10-9 15-19 15-27 0-9-5-19-15-30z"/>
<glyph glyph-name="simple-line-icons-96" unicode="&#57346;" d="M496 159c0 1 0 1 0 1l0 334c0 1 0 3 0 5-2 7-8 13-16 13-3 0-6-1-8-2l-299-78c-5-1-9-5-11-10-1-3-2-5-2-8l0-286c-15 10-35 16-56 16-49 0-88-32-88-72 0-40 39-72 88-72 49 0 88 32 88 72 0 2 0 4 0 6 0 0 0 0 0 0l0 326 272 71 0-267c-15 10-35 16-56 16-49 0-88-32-88-72 0-40 39-72 88-72 49 0 88 32 88 72 0 2 0 5 0 7z m-392-127c-33 0-56 21-56 40 0 19 23 40 56 40 30 0 52-17 56-34l0 0c0-2 0-3 1-4 0-1 0-1 0-2 0-19-23-40-57-40z m304 80c-33 0-56 21-56 40 0 19 23 40 56 40 33 0 56-21 56-40 0-19-23-40-56-40z"/>
<glyph glyph-name="simple-line-icons-97" unicode="&#57347;" d="M426 350l-156 157c-5 5-12 6-18 3-7-2-11-8-11-15l0-354c-17 12-39 20-64 20-53 0-96-36-96-80 0-45 43-80 96-80 53 0 96 35 96 80 0 2 0 4 0 5l0 373 131-131c6-7 16-7 22 0 7 6 7 16 0 22z m-249-317c-38 0-64 25-64 48 0 22 26 48 64 48 37 0 63-25 64-47l0-3c-1-22-27-46-64-46z"/>
<glyph glyph-name="simple-line-icons-98" unicode="&#57348;" d="M255 160l4 0c45 0 77 33 77 78l0 191c0 46-34 83-77 83l-4 0c-43 0-79-37-79-83l0-191c0-44 34-78 79-78z m-47 269c0 28 21 51 47 51l4 0c26 0 45-22 45-51l0-191c0-28-18-46-45-46l-4 0c-27 0-47 19-47 46z m192-93c-9 0-16-7-16-16l0-67c0-95-34-141-104-141l-47 0c-92 0-105 77-105 141l0 67c0 9-7 16-16 16-9 0-16-7-16-16l0-67c0-110 46-173 137-173l7 0 0-48-80 0c-9 0-16-7-16-16 0-9 7-16 16-16l192 0c9 0 16 7 16 16 0 9-7 16-16 16l-80 0 0 48 8 0c62 0 136 30 136 173l0 67c0 9-7 16-16 16z"/>
<glyph glyph-name="simple-line-icons-99" unicode="&#57349;" d="M480 461l-448 0c-18 0-32-14-32-32l0-288c0-18 14-32 32-32l80 0c10 0 16 13 16 16l0 0c0 3-5 16-16 16l-60 0c-11 0-20 9-20 20l0 248c0 11 9 19 20 19l409 1c10 0 19-9 19-19l0-249c0-11-9-20-19-20l-202 0 38 35c5 4 6 11 2 16l-3 4c-5 4-12 4-17 0l-65-59c0 0 0 0 0 0l-4-4c-3-3-4-6-4-9 0-3 1-5 4-8l4-4c0 0 0 0 0 0l64-58c5-4 12-4 17 0l3 4c4 5 3 12-2 16l-39 35 223 0c18 0 32 14 32 32l0 288c0 18-14 32-32 32z"/>
<glyph glyph-name="simple-line-icons-100" unicode="&#57350;" d="M58 240l278 0c8 0 16 7 16 16 0 9-8 16-16 16l-277 0 58 58c7 6 7 16 0 23-6 6-16 6-22 0l-95-97 95-97c3-3 7-5 11-5 4 0 8 2 11 5 7 6 7 16 0 22z m422 272l-272 0c-18 0-32-14-32-32l0-144 32 0 0 124c0 11 9 20 19 20l233 0c10 0 19-9 19-20l1-409c0-10-9-19-20-19l-233 0c-10 0-19 9-19 19l0 126-32-1 0-144c0-18 14-32 32-32l272 0c18 0 32 14 32 32l0 448c0 18-14 32-32 32z"/>
<glyph glyph-name="simple-line-icons-101" unicode="&#57351;" d="M266 181c-6-6-6-16 0-22 3-3 7-5 12-5 4 0 8 2 11 5l94 97-94 97c-6 6-16 6-23 0-6-7-6-17 0-23l58-58-308 0c-9 0-16-7-16-16 0-9 7-16 16-16l309 0z m214 331l-288 0c-18 0-32-14-32-32l0-144 32 0 0 124c0 11 9 20 20 20l248 0c11 0 19-9 19-20l1-409c0-10-9-19-19-19l-249 0c-11 0-20 9-20 19l0 126-32-1 0-144c0-18 14-32 32-32l288 0c18 0 32 14 32 32l0 448c0 18-14 32-32 32z"/>
<glyph glyph-name="simple-line-icons-102" unicode="&#57352;" d="M48 288l-32 0c-9 0-16-7-16-16l0-32c0-9 7-16 16-16l32 0c9 0 16 7 16 16l0 32c0 9-7 16-16 16z m448-16l-336 0c-9 0-16-7-16-16 0-9 7-16 16-16l336 0c9 0 16 7 16 16 0 9-7 16-16 16z m-448-112l-32 0c-9 0-16-7-16-16l0-32c0-9 7-16 16-16l32 0c9 0 16 7 16 16l0 32c0 9-7 16-16 16z m448-16l-336 0c-9 0-16-7-16-16 0-9 7-16 16-16l336 0c9 0 16 7 16 16 0 9-7 16-16 16z m-448 272l-32 0c-9 0-16-7-16-16l0-32c0-9 7-16 16-16l32 0c9 0 16 7 16 16l0 32c0 9-7 16-16 16z m112-48l336 0c9 0 16 7 16 16 0 9-7 16-16 16l-336 0c-9 0-16-7-16-16 0-9 7-16 16-16z"/>
<glyph glyph-name="simple-line-icons-103" unicode="&#57353;" d="M304 0c-145 0-146 6-164 20-10 7-28 12-94 16-4 0-9 2-12 6-1 2-34 50-34 127 0 75 23 110 24 111 3 5 8 8 14 8 54 0 129 69 179 189 9 21 11 35 43 35 18 0 38-13 48-30 21-34 10-107 1-147 33 1 93 1 121 1 39 0 66-23 66-58 1-11-1-26-4-33 9-9 20-22 20-39 1-22-13-38-22-48 2-6 6-15 5-25-1-24-20-40-31-48 1-7 1-20-1-30-8-39-66-55-159-55z m-249 69c57-5 88-12 104-24 12-9 11-13 145-13 41 0 122 2 128 30 2 11-10 22-10 22-3 9 1 18 9 21 0 0 32 12 32 30 1 11-7 18-7 18-5 8-3 17 4 22 0 0 21 13 20 30 0 14-18 23-19 24-4 2-6 6-7 10-1 5 0 10 3 13 0 0 8 13 7 25 0 26-28 27-34 27-40 0-144 0-144 0-6 0-11 2-14 7-3 4-3 10-1 15 16 45 24 116 10 140-4 7-5 14-21 14-3 0-8-2-13-15-54-128-134-202-199-209-6-12-16-39-16-87 0-50 15-88 23-100z"/>
<glyph glyph-name="simple-line-icons-104" unicode="&#57354;" d="M508 255l-240 252c-3 3-7 5-11 5-5 0-9-2-12-5l-241-252c-6-6-6-16 0-22 7-6 17-6 23 0l21 23 0-240c0-9 7-16 16-16l112 0c9 0 16 7 16 16l1 160 127 0 0-160c0-9 7-16 16-16l112 0c9 0 16 7 16 16l0 240 21-23c3-3 8-5 12-5 4 0 8 2 11 5 6 6 6 16 0 22z m-76 30l0-253-80 0 0 160c0 9-7 16-16 16l-159 0c-9 0-16-7-16-16l-1-160-80 0 0 253c0 1 0 2 0 3l177 185 175-184c0-2 0-3 0-4z"/>
<glyph glyph-name="simple-line-icons-105" unicode="&#57355;" d="M480 0l-160 0c-18 0-32 14-32 32l0 160c0 18 14 32 32 32l160 0c18 0 32-14 32-32l0-160c0-18-14-32-32-32z m0 192l-160 0 0-160 160 0z m0 96l-160 0c-18 0-32 14-32 32l0 160c0 18 14 32 32 32l160 0c18 0 32-14 32-32l0-160c0-18-14-32-32-32z m0 192l-160 0 0-160 160 0z m-288-480l-160 0c-18 0-32 14-32 32l0 160c0 18 14 32 32 32l160 0c18 0 32-14 32-32l0-160c0-18-14-32-32-32z m0 192l-160 0 0-160 160 0z m0 96l-160 0c-18 0-32 14-32 32l0 160c0 18 14 32 32 32l160 0c18 0 32-14 32-32l0-160c0-18-14-32-32-32z m0 192l-160 0 0-160 160 0z"/>
<glyph glyph-name="simple-line-icons-106" unicode="&#57356;" d="M472 400c-22 0-40-18-40-40 0-5 1-9 2-13l-97-84c-7 6-16 9-25 9-11 0-21-4-28-11l-76 38c-2 21-19 37-40 37-22 0-40-18-40-40 0-6 1-12 4-17l-78-90c-4 2-9 3-14 3-22 0-40-18-40-40 0-22 18-40 40-40 22 0 40 18 40 40 0 5-1 10-3 15l79 91c4-1 8-2 12-2 12 0 22 5 29 13l75-37c0-22 18-40 40-40 22 0 40 18 40 40 0 1 0 1 0 2l104 89c5-2 10-3 16-3 22 0 40 18 40 40 0 22-18 40-40 40z"/>
<glyph glyph-name="simple-line-icons-107" unicode="&#57357;" d="M80 318l0 178c0 9-7 16-16 16-9 0-16-7-16-16l0-178c-28-7-48-32-48-62 0-30 20-55 48-62l0-178c0-9 7-16 16-16 9 0 16 7 16 16l0 178c28 7 48 32 48 62 0 30-20 55-48 62z m-16-94c0 0 0 0 0 0 0 0 0 0 0 0-18 0-32 14-32 32 0 18 14 32 32 32 0 0 0 0 0 0 0 0 0 0 0 0 18 0 32-14 32-32 0-18-14-32-32-32z m208-2l0 274c0 9-7 16-16 16-9 0-16-7-16-16l0-274c-28-7-48-32-48-62 0-30 20-55 48-62l0-82c0-9 7-16 16-16 9 0 16 7 16 16l0 82c28 7 48 32 48 62 0 30-20 55-48 62z m-16-94c0 0 0 0 0 0 0 0 0 0 0 0-18 0-32 14-32 32 0 18 14 32 32 32 0 0 0 0 0 0 0 0 0 0 0 0 18 0 32-14 32-32 0-18-14-32-32-32z m208 286l0 82c0 9-7 16-16 16-9 0-16-7-16-16l0-82c-28-7-48-32-48-62 0-30 20-55 48-62l0-274c0-9 7-16 16-16 9 0 16 7 16 16l0 274c28 7 48 32 48 62 0 30-20 55-48 62z m-16-94c0 0 0 0 0 0 0 0 0 0 0 0-18 0-32 14-32 32 0 18 14 32 32 32 0 0 0 0 0 0 0 0 0 0 0 0 18 0 32-14 32-32 0-18-14-32-32-32z"/>
<glyph glyph-name="simple-line-icons-108" unicode="&#57358;" d="M208 512c145 0 146-6 164-20 10-7 28-12 94-16 4 0 9-2 12-6 1-2 34-50 34-127 0-75-23-110-24-111-3-5-8-8-14-8-54 0-129-69-179-189-9-21-11-35-43-35-18 0-38 13-48 30-21 34-11 107-1 147-33-1-93-1-121-1-39 0-66 23-66 58-1 11 1 26 4 33-9 9-20 22-20 39-1 22 13 38 22 48-2 6-6 15-5 25 1 24 20 40 31 48-1 7-1 20 1 30 8 39 66 55 159 55z m249-69c-57 5-88 12-104 24-12 9-11 13-145 13-41 0-122-2-128-30-2-11 10-22 10-22 3-9-1-18-9-21 0 0-32-12-32-30-1-11 7-18 7-18 5-8 3-17-4-22 0 0-21-13-20-30 0-14 18-23 18-24 4-2 7-6 8-10 1-5 0-10-3-13 0 0-8-13-7-25 0-26 28-27 34-27 40 0 144 0 144 0 6 0 11-2 14-7 3-4 3-10 1-15-16-45-24-116-10-140 4-7 5-14 21-14 3 0 8 2 13 15 54 128 134 202 199 209 6 12 16 39 16 87 0 50-15 88-23 100z"/>
<glyph glyph-name="simple-line-icons-109" unicode="&#57359;" d="M461 460l-169-393-59 173-172 52 400 168m41 52c-3 0-7-1-11-3l-477-203c-17-7-18-21-3-31l198-62 65-201c4-8 10-12 15-12 6 0 12 5 16 14l204 477c6 13 2 21-7 21z"/>
<glyph glyph-name="simple-line-icons-110" unicode="&#57360;" d="M487 479c0 12-6 23-16 28-5 3-10 4-16 4-5 0-11-1-16-5l-368-223c-8-5-14-13-15-22l0 235c0 9-7 16-16 16-9 0-16-7-16-16l0-480c0-9 7-16 16-16 9 0 16 7 16 16l0 235c1-9 7-17 15-22l368-223c5-4 11-5 17-5 5 0 11 1 16 4 10 5 16 16 16 28z m-399-223l367 223 1-446z"/>
<glyph glyph-name="simple-line-icons-111" unicode="&#57361;" d="M287 413l-253-157 253-157 0 123 192-123 0 314-192-123 0 127m-1 28c5 0 11-1 16-4 10-6 17-16 17-28l0-66 149 93c5 3 11 5 17 5 5 0 7-1 12-4 11-6 14-16 14-28l0-314c0-12-4-22-14-28-5-3-9-4-14-4-6 0-10 2-16 5l-148 93 0-66c0-12-7-22-17-28-5-3-11-4-16-4-6 0-12 2-17 5l-253 157c-9 6-15 16-15 27 0 11 6 21 15 27l253 157c5 3 11 5 17 5z"/>
<glyph glyph-name="simple-line-icons-112" unicode="&#57362;" d="M72 479l368-223-368-223 0 446m0 32c-5 0-10-1-15-4-10-5-17-16-17-28l0-446c0-12 6-23 16-28 5-3 10-4 16-4 6 0 12 1 17 5l368 223c9 6 15 16 15 27 0 11-6 21-15 27l-368 223c-5 4-11 5-17 5z"/>
<glyph glyph-name="simple-line-icons-113" unicode="&#57363;" d="M208 512l-112 0c-9 0-16-7-16-16l0-480c0-9 7-16 16-16l112 0c9 0 16 7 16 16l0 480c0 9-7 16-16 16z m-16-480l-80 0 0 448 80 0z m224 480l-112 0c-8 0-16-7-16-16l0-480c0-9 8-16 16-16l112 0c9 0 16 7 16 16l0 480c0 9-7 16-16 16z m-16-480l-80 0 0 448 80 0z"/>
<glyph glyph-name="simple-line-icons-114" unicode="&#57364;" d="M225 413l253-157-253-157 0 123-192-123 0 314 192-123 0 127m1 28c-5 0-11-1-16-4-10-6-17-16-17-28l0-66-149 93c-5 3-11 5-17 5-5 0-7-1-12-4-10-6-14-16-14-28l0-314c0-12 4-22 14-28 5-3 9-4 14-4 6 0 10 2 16 5l148 93 0-66c0-12 7-22 17-28 5-3 11-4 16-4 6 0 12 2 17 5l253 157c9 6 15 16 15 27 0 11-6 21-15 27l-253 157c-5 3-11 5-17 5z"/>
<glyph glyph-name="simple-line-icons-115" unicode="&#57365;" d="M472 512c-9 0-16-7-16-16l0-235c-1 9-7 17-15 22l-368 223c-5 4-11 5-16 5-6 0-11-1-16-4-10-5-16-16-16-28l-1-446c0-12 6-23 16-28 5-3 11-4 16-4 6 0 12 1 17 5l368 223c8 5 14 13 15 22l0-235c0-9 7-16 16-16 9 0 16 7 16 16l0 480c0 9-7 16-16 16z m-416-479l1 446 367-223z"/>
<glyph glyph-name="simple-line-icons-116" unicode="&#57366;" d="M480 464l-128 0 0 32c0 9-7 16-16 16-9 0-16-7-16-16l0-32-128 0 0 32c0 9-7 16-16 16-9 0-16-7-16-16l0-32-128 0c-18 0-32-14-32-32l0-400c0-18 14-32 32-32l448 0c18 0 32 14 32 32l0 400c0 18-14 32-32 32z m0-432l-448 0 0 400 128 0 0-16c0-9 7-16 16-16 9 0 16 7 16 16l0 16 128 0 0-16c0-9 7-16 16-16 9 0 16 7 16 16l0 16 128 0z m-112 224l32 0c9 0 16 7 16 16l0 32c0 9-7 16-16 16l-32 0c-9 0-16-7-16-16l0-32c0-9 7-16 16-16z m0-128l32 0c9 0 16 7 16 16l0 32c0 9-7 16-16 16l-32 0c-9 0-16-7-16-16l0-32c0-9 7-16 16-16z m-96 64l-32 0c-9 0-16-7-16-16l0-32c0-9 7-16 16-16l32 0c9 0 16 7 16 16l0 32c0 9-7 16-16 16z m0 128l-32 0c-9 0-16-7-16-16l0-32c0-9 7-16 16-16l32 0c9 0 16 7 16 16l0 32c0 9-7 16-16 16z m-128 0l-32 0c-9 0-16-7-16-16l0-32c0-9 7-16 16-16l32 0c9 0 16 7 16 16l0 32c0 9-7 16-16 16z m0-128l-32 0c-9 0-16-7-16-16l0-32c0-9 7-16 16-16l32 0c9 0 16 7 16 16l0 32c0 9-7 16-16 16z"/>
<glyph glyph-name="simple-line-icons-117" unicode="&#57367;" d="M256 512c-99 0-177-81-177-180 0-74 37-110 66-136 19-16 31-26 31-39l0-27c0-1 0-1 0-2l0 0 0-46c0-49 32-82 81-82 47 0 79 33 79 82l0 46 0 0c0 1 0 1 0 2l0 27c0 19 14 30 35 49 29 25 62 56 62 126 0 99-78 180-177 180z m-1-480c-30 0-47 19-47 50l0 21c11-4 27-7 48-7 21 0 36 3 48 7l0-21c0-32-18-50-49-50z m95 198c-22-19-46-38-46-73l0-20c-8-4-22-9-48-9-28 0-41 5-48 8l0 21c0 28-21 45-42 63-27 25-55 52-55 112 0 82 64 148 145 148 81 0 145-66 145-148 0-55-25-79-51-102z"/>
<glyph glyph-name="simple-line-icons-118" unicode="&#57368;" d="M136 352l-112 0c-9 0-16-7-16-16l0-320c0-9 7-16 16-16l112 0c9 0 16 7 16 16l0 320c0 9-7 16-16 16z m-16-320l-80 0 0 288 80 0z m192 225l-112 0c-9 0-16-7-16-16l0-225c0-9 7-16 16-16l112 0c9 0 16 7 16 16l0 225c0 9-7 16-16 16z m-16-225l-80 0 0 193 80 0z m192 480l-112 0c-9 0-16-7-16-16l0-480c0-9 7-16 16-16l112 0c9 0 16 7 16 16l0 480c0 9-7 16-16 16z m-16-480l-80 0 0 448 80 0z"/>
<glyph glyph-name="simple-line-icons-119" unicode="&#57369;" d="M512 256c0 141-115 256-256 256-141 0-256-115-256-256 0-141 115-256 256-256 141 0 256 115 256 256z m-480 0c0 124 100 224 224 224 124 0 224-100 224-224 0-124-100-224-224-224-124 0-224 100-224 224z m240-112l0 180 58-58c6-6 16-6 23 0 6 6 6 17 0 23l-97 94-97-94c-3-3-5-7-5-11 0-5 2-9 5-12 6-6 16-6 22 0l59 59 0-181c0-9 7-16 16-16 9 0 16 7 16 16z"/>
<glyph glyph-name="simple-line-icons-120" unicode="&#57370;" d="M256 512c-141 0-256-115-256-256 0-141 115-256 256-256 141 0 256 115 256 256 0 141-115 256-256 256z m0-481c-124 0-224 101-224 225 0 124 100 224 224 224 124 0 224-100 224-224 0-124-100-225-224-225z m10 322c-6-7-6-17 0-23l58-58-180 0c-9 0-16-7-16-16 0-9 7-16 16-16l181 0-59-59c-6-6-6-16 0-22 3-3 7-5 12-5 4 0 8 2 11 5l94 97-94 97c-6 6-17 6-23 0z"/>
<glyph glyph-name="simple-line-icons-121" unicode="&#57371;" d="M256 512c-141 0-256-115-256-256 0-141 115-256 256-256 141 0 256 115 256 256 0 141-115 256-256 256z m0-481c-124 0-224 101-224 225 0 124 100 224 224 224 124 0 224-100 224-224 0-124-100-225-224-225z m112 241l-180 0 58 58c6 6 6 16 0 23-6 6-17 6-23 0l-94-97 94-97c3-3 7-5 11-5 5 0 9 2 12 5 6 6 6 16 0 22l-59 59 181 0c9 0 16 7 16 16 0 9-7 16-16 16z"/>
<glyph glyph-name="simple-line-icons-122" unicode="&#57372;" d="M0 256c0-141 115-256 256-256 141 0 256 115 256 256 0 141-115 256-256 256-141 0-256-115-256-256z m481 0c0-124-101-224-225-224-124 0-224 100-224 224 0 124 100 224 224 224 124 0 225-100 225-224z m-241 112l0-180-58 58c-6 6-16 6-23 0-6-6-6-17 0-23l97-94 97 94c3 3 5 7 5 12 0 4-2 8-5 11-6 6-16 6-22 0l-59-59 0 181c0 9-7 16-16 16-9 0-16-7-16-16z"/>
<glyph glyph-name="simple-line-icons-123" unicode="&#57373;" d="M256 512c-141 0-256-115-256-256 0-141 115-256 256-256 141 0 256 115 256 256 0 141-115 256-256 256z m-224-256c0 56 21 107 55 147l316-316c-39-35-91-56-147-56-124 0-224 101-224 225z m394-146l-316 315c39 34 90 55 146 55 124 0 224-100 224-224 0-56-21-107-54-146z"/>
<glyph glyph-name="simple-line-icons-124" unicode="&#57374;" d="M256 448c124 0 224-72 224-160 0-88-100-160-224-160l-8 0-5 0c-9 0-15 0-24 2l-18 2-11-14c-6-6-32-28-62-43 6 16 10 34 11 51l0 1 0 22-18 9c-56 29-89 77-89 130 0 88 100 160 224 160m0 32c-141 0-256-86-256-192 0-66 39-124 107-158 0-1 0-1 0-1 0-29-16-61-26-77l0 0c-1-2-1-3-1-6 0-8 6-14 15-14 1 0 3 0 3 0 1 0 1 0 1 0 50 8 105 53 115 66 12-2 19-2 29-2 4 0 8 0 13 0 141 0 256 86 256 192 0 106-115 192-256 192z"/>
<glyph glyph-name="simple-line-icons-125" unicode="&#57375;" d="M319 400c1 0 1 0 1-1l0-64c0-12 7-22 17-28 5-3 10-4 15-4 7 0 14 2 19 6l109 61 0-228-109 60c-6 4-12 6-19 6-5 0-10-2-15-4-10-5-17-16-17-28l0-63c0-1 0-1-1-1l-286 0c0 0-1 0-1 1l0 286c0 1 1 1 1 1l286 0m176 16c-3 0-10-1-14-5l-129-76 0 64c0 18-15 33-33 33l-286 0c-18 0-33-15-33-33l0-286c0-18 15-33 33-33l286 0c18 0 33 15 33 33l0 63 132-77c4-4 8-3 11-3 4 0 6 1 7 1 6 2 10 8 10 15l0 288c0 6-4 13-10 15-1 0-3 1-7 1z"/>
<glyph glyph-name="simple-line-icons-126" unicode="&#57376;" d="M464 400l-74 0-38 64-192 0-38-64-74 0c-16 0-48-16-48-48l0-256c0-27 24-48 45-48l420 0c21 0 47 22 47 47l0 257c0 16-16 48-48 48z m16-305c0-6-10-15-15-15l-420 0c-4 0-13 8-13 16l0 256c0 11 14 16 16 16l92 0 9 16 29 48 157 0 29-48 8-16 92 0c11 0 16-15 16-16z m-224 257c-62 0-112-50-112-112 0-62 50-112 112-112 62 0 112 50 112 112 0 62-50 112-112 112z m0-192c-44 0-80 36-80 80 0 44 36 80 80 80 44 0 80-36 80-80 0-44-36-80-80-80z"/>
<glyph glyph-name="simple-line-icons-127" unicode="&#57377;" d="M256 512c-141 0-256-115-256-256 0-141 115-256 256-256 141 0 256 115 256 256 0 141-115 256-256 256z m0-481c-124 0-224 101-224 225 0 124 100 224 224 224 124 0 224-100 224-224 0-124-100-225-224-225z m102 319l-150-151-68 67c-6 6-16 6-22 0-7-6-7-16 0-22l79-80c6-6 16-6 23 0 0 1 1 2 1 3l160 160c6 6 6 16 0 23-6 6-17 6-23 0z"/>
<glyph glyph-name="simple-line-icons-128" unicode="&#57378;" d="M256 512c-141 0-256-115-256-256 0-141 115-256 256-256 141 0 256 115 256 256 0 141-115 256-256 256z m0-481c-124 0-224 101-224 225 0 124 100 224 224 224 124 0 224-100 224-224 0-124-100-225-224-225z m16 231l0 154c0 9-7 16-16 16-9 0-16-7-16-16l0-160c0-5 2-9 5-12 0 0 0 0 1 0l79-80c6-6 16-6 23 0 6 7 6 17 0 23z"/>
<glyph glyph-name="simple-line-icons-129" unicode="&#57379;" d="M256 512c-141 0-256-115-256-256 0-141 115-256 256-256 141 0 256 115 256 256 0 141-115 256-256 256z m0-481c-124 0-224 101-224 225 0 124 100 224 224 224 124 0 224-100 224-224 0-124-100-225-224-225z m91 316c-7 6-17 6-23 0l-68-68-68 68c-6 6-16 6-23 0-6-7-6-17 0-23l68-68-68-68c-6-6-6-16 0-23 7-6 17-6 23 0l68 68 68-68c6-6 16-6 23 0 6 7 6 17 0 23l-68 68 68 68c6 6 6 16 0 23z"/>
<glyph glyph-name="simple-line-icons-130" unicode="&#57380;" d="M382 382c-23 59-71 97-143 97-92 0-157-69-162-158-45-14-77-60-77-111 0-63 49-116 108-116l14 0c9 0 16 7 16 16 0 9-7 16-16 16l-14 0c-41 0-77 39-77 84 0 40 29 77 64 83l15 2-2 15 0 0c0 78 51 137 131 137 63 0 99-32 116-85l3-11 12 0c59-2 111-50 111-110 0-54-36-115-91-115l-4 0c-9 0-16-7-16-16 0-9 7-16 16-16l0 0c80 2 126 79 126 147 0 74-58 133-130 141z m-59-258c-4 5-12 5-16 0l-35-39 0 162c0 8-7 16-16 16-9 0-16-8-16-16l0-162-34 38c-5 5-12 6-16 1l-4-2c-5-5-5-12 0-17l57-64c0 0 0 0 0 0l5-4c2-3 5-4 8-4 3 0 6 1 8 4l4 4c0 0 0 0 0 0l59 65c5 5 5 10 0 15z"/>
<glyph glyph-name="simple-line-icons-131" unicode="&#57381;" d="M382 382c-23 59-71 97-143 97-92 0-157-69-162-158-45-14-77-60-77-111 0-63 49-116 108-116l46 0c9 0 16 7 16 16 0 9-7 16-16 16l-46 0c-41 0-77 39-77 84 0 40 29 77 64 83l15 2-2 15 0 0c0 78 51 137 131 137 63 0 99-32 116-85l3-11 11 0c60-2 112-50 112-110 0-54-36-115-91-115l-36 0c-9 0-16-7-16-16 0-9 7-16 16-16l36 0c80 2 122 79 122 147 0 74-58 133-130 141z m-114-127c0 0 0 0 0 0l-4 4c-2 2-5 4-8 4-3 0-6-2-8-4l-5-4c0 0 0 0 0 0l-57-64c-5-5-5-13 0-17l4-3c4-5 11-3 16 2l34 37 0-161c0-9 7-16 16-16 9 0 16 7 16 16l0 161 35-38c4-5 12-7 16-2l4 3c5 4 5 12 0 17z"/>
<glyph glyph-name="simple-line-icons-132" unicode="&#57382;" d="M280 512l-176 0c-18 0-32-14-32-32l0-448c0-18 14-32 32-32l304 0c18 0 32 14 32 32l0 320z m128-173l0-3-144 0 0 144 3 0z m-304-307l0 448 128 0 0-176 176 0 0-272z"/>
<glyph glyph-name="simple-line-icons-133" unicode="&#57383;" d="M512 396c0 3 0 6-2 9-4 18-16 27-38 27l-416 0c-19 0-40-7-50-21-1 0-1-1-2-2-3-4-4-9-4-13 0-1 0-3 0-4l0-256c0-27 29-56 56-56l416 0c27 0 40 29 40 56l0 256c0 1 0 3 0 4z m-456 4l416 0c0 0 0 0 0 0l-216-172-215 171c5 1 11 1 15 1z m416-288l-416 0c-9 0-24 15-24 24l0 229 214-171c3-2 6-3 10-3 4 0 7 1 10 3l214 171 0-229c0-9 1-24-8-24z"/>
<glyph glyph-name="simple-line-icons-134" unicode="&#57384;" d="M258 351c-53 0-96-43-96-96 0-53 43-96 96-96 53 0 96 43 96 96 0 53-43 96-96 96z m0-160c-36 0-65 30-65 65 0 35 29 64 64 64 35 0 64-29 64-64 0-35-28-65-63-65z m254 69c0 1 0 1-1 2 0 1 0 1 0 1 0 0 0 1 0 1-47 107-147 168-254 168-107 0-209-61-256-167 0-1 0-1 0-2 0 0 0 0-1-1 0 0 0-1 0-2 0-2 0-3 0-4 0-2 0-3 0-5 0-1 0-1 0-2 1-1 1-1 1-1 0 0 0-1 0-1 47-107 148-167 255-167 107 0 208 60 255 166 0 1 0 1 0 2 0 0 0 0 1 1 0 0 0 1 0 2 0 2 0 3 0 4 0 2 0 3 0 5z m-256-148c-91 0-180 47-224 144 44 95 134 144 225 144 91 0 179-49 223-145-44-95-133-143-224-143z"/>
<glyph glyph-name="simple-line-icons-135" unicode="&#57385;" d="M340 464c-80 0-101 48-203 48-65 0-105-49-105-49l0-447c0-9 7-16 16-16 9 0 16 7 16 16l0 204c17 10 40 20 69 20 102 0 131-48 211-48 80 0 136 48 136 48l0 272c0 0-60-48-140-48z m108-207c-18-12-56-33-104-33-31 0-53 9-80 20-33 13-71 28-131 28-27 0-50-7-69-16l0 194c12 11 38 30 73 30 47 0 74-11 102-23 28-12 57-25 101-25 43 0 80 12 108 25z"/>
<glyph glyph-name="simple-line-icons-136" unicode="&#57386;" d="M177 424l40-39 10-9 253 0 0-288-448 0 0 336 144 0m16 32l-160 0c-18 0-32-14-32-32l0-336c0-18 14-32 32-32l448 0c18 0 32 14 32 32l0 288c0 18-14 32-32 32l-240 0z"/>
<glyph glyph-name="simple-line-icons-137" unicode="&#57387;" d="M144 455c16 0 44-8 90-53l23-22 22 22c32 33 66 53 89 53 31 0 55-10 79-34 22-22 34-52 34-83 0-31-12-61-35-83-2-2-98-107-179-194-4-4-8-4-11-4-2 0-6 0-10 4-20 22-163 181-179 198-23 22-35 51-35 83 0 31 12 61 35 83 21 21 47 30 77 30m0 32c-38 0-72-12-100-40-59-58-59-153 0-211 17-17 179-197 179-197 9-9 21-14 33-14 12 0 25 5 34 14 0 0 177 191 179 193 59 59 59 153 0 212-29 29-61 43-101 43-38 0-80-30-112-62-32 32-73 62-112 62z"/>
<glyph glyph-name="simple-line-icons-138" unicode="&#57388;" d="M288 144l-16 0 0 143c0 0 0 0 0 1 0 0 0 0 0 0 0 9-7 16-16 16l-32 0c-9 0-16-7-16-16 0-9 7-16 16-16l16 0 0-128-16 0c-9 0-16-7-16-16 0-9 7-16 16-16l64 0c9 0 16 7 16 16 0 9-7 16-16 16z m-32 192c18 0 32 14 32 32 0 18-14 32-32 32-18 0-32-14-32-32 0-18 14-32 32-32z m0 176c-141 0-256-115-256-256 0-141 115-256 256-256 141 0 256 115 256 256 0 141-115 256-256 256z m0-481c-124 0-224 101-224 225 0 124 100 224 224 224 124 0 224-100 224-224 0-124-100-225-224-225z"/>
<glyph glyph-name="simple-line-icons-139" unicode="&#57389;" d="M328 512c-80 0-144-65-144-144 0-36 13-69 34-94-4 1-9-1-12-4l-161-163c-6-6-6-16 0-22 0 0 0 0 0 0 0 0 0-1 0-1l79-80c6-6 16-6 22 0 7 7 7 17 0 23l-67 69 41 42 68-70c6-6 16-6 22 0 7 7 7 17 0 23l-68 69 87 87c3 3 4 8 4 12 26-22 59-35 95-35 79 0 144 64 144 144 0 79-65 144-144 144z m0-256c-62 0-112 50-112 112 0 62 50 112 112 112 61 0 112-50 112-112 0-62-51-112-112-112z"/>
<glyph glyph-name="simple-line-icons-140" unicode="&#57390;" d="M148 146c3-3 7-5 11-5 4 0 8 2 11 5l194 195c7 6 7 16 0 23-6 6-16 6-22 0l-194-196c-6-6-6-16 0-22z m90 34c5-23 0-46-18-64l-65-63c-14-14-32-21-51-21-19 0-37 7-51 21-28 28-28 74 0 102l63 65c14 13 32 21 51 21 7 0 13-1 19-3l25 25c-14 7-29 10-44 10-27 0-53-10-74-31l-63-65c-40-40-40-106 0-147 21-20 47-30 74-30 27 0 53 10 74 30l64 63c31 31 38 74 21 112z m244 302c-21 20-47 30-74 30-27 0-53-10-74-30l-64-63c-32-32-39-80-20-119l25 25c-7 24-2 52 17 71l65 63c14 14 32 21 51 21 19 0 37-7 51-21 28-28 28-74 0-102l-65-64c-13-14-31-21-50-21-5 0-10-1-14 0l-26-25c13-6 26-7 40-7 26 0 53 10 73 30l65 65c40 40 40 106 0 147z"/>
<glyph glyph-name="simple-line-icons-141" unicode="&#57391;" d="M400 320l-16 0 0 61c0 73-53 131-129 131-75 0-127-59-127-131l0-61-16 0c-35 0-64-29-64-64l0-192c0-35 29-64 64-64l288 0c35 0 64 29 64 64l0 192c0 35-29 64-64 64z m-240 61c0 55 37 99 95 99 58 0 97-43 97-99l0-61-192 0z m272-317c0-18-14-32-32-32l-288 0c-18 0-32 14-32 32l0 192c0 18 14 32 32 32l288 0c18 0 32-14 32-32z m-176 160c-18 0-32-14-32-32 0-12 6-22 16-28l0-52c0-9 7-16 16-16 9 0 16 7 16 16l0 52c10 6 16 16 16 28 0 18-14 32-32 32z"/>
<glyph glyph-name="simple-line-icons-142" unicode="&#57392;" d="M400 319l-228 0-9 38c-14 52 11 105 67 120 55 15 104-17 119-71l6-27c3-8 12-13 20-11 9 2 14 11 11 20l-6 27c-19 70-86 112-158 93-74-20-108-90-90-160l7-29-27 0c-35 0-64-28-64-64l0-192c0-35 29-64 64-64l288 0c35 0 64 29 64 64l0 192c0 36-29 64-64 64z m32-256c0-17-14-32-32-32l-288 0c-18 0-32 15-32 32l0 192c0 18 14 32 32 32l288 0c18 0 32-14 32-32z m-176 160c-18 0-32-14-32-32 0-11 6-22 16-27l0-53c0-8 7-16 16-16 9 0 16 8 16 16l0 53c10 5 16 16 16 27 0 18-14 32-32 32z"/>
<glyph glyph-name="simple-line-icons-143" unicode="&#57393;" d="M507 27l-155 157c29 35 46 79 46 128 0 110-89 200-200 200-110 0-200-90-200-200 0-110 90-200 200-200 50 0 96 19 131 49l156-156c6-6 16-6 22 0 7 6 7 16 0 22z m-309 117c-93 0-168 75-168 168 0 93 75 168 168 168 93 0 169-75 169-168 0-93-76-168-169-168z"/>
<glyph glyph-name="simple-line-icons-144" unicode="&#57394;" d="M507 27l-141 143c30 36 48 83 48 134 0 115-92 208-207 208-115 0-209-93-209-208 0-115 94-209 209-209 52 0 100 20 136 52l142-142c6-6 16-6 22 0 7 6 7 16 0 22z m-301 101c-96 0-176 79-176 176 0 97 80 176 176 176 97 0 176-79 176-176 0-97-79-176-176-176z m80 192l-64 0 0 64c0 9-7 16-16 16-9 0-16-7-16-16l0-64-64 0c-9 0-16-7-16-16 0-9 7-16 16-16l64 0 0-64c0-9 7-16 16-16 9 0 16 7 16 16l0 64 64 0c9 0 16 7 16 16 0 9-7 16-16 16z"/>
<glyph glyph-name="simple-line-icons-145" unicode="&#57395;" d="M507 27l-141 143c30 36 48 83 48 134 0 115-92 208-207 208-115 0-209-93-209-208 0-115 94-209 209-209 52 0 100 20 136 52l142-142c6-6 16-6 22 0 7 6 7 16 0 22z m-301 101c-96 0-176 79-176 176 0 97 80 176 176 176 97 0 176-79 176-176 0-97-79-176-176-176z m80 192l-160 0c-9 0-16-7-16-16 0-9 7-16 16-16l160 0c9 0 16 7 16 16 0 9-7 16-16 16z"/>
<glyph glyph-name="simple-line-icons-146" unicode="&#57396;" d="M86 8c-21 0-42 9-59 26-37 37-37 97 0 134l287 305c45 45 114 40 164-10 22-22 35-55 34-89 0-33-13-66-36-88l-217-231c-6-7-16-7-22-1-7 6-7 16-1 23l217 231c17 17 27 41 27 67 1 25-8 49-25 66-31 30-81 47-118 9l-287-305c-25-24-25-64 0-89 11-11 25-17 39-16 15 1 29 9 42 21l228 243c8 8 25 29 8 46-10 9-16 9-18 9-7-1-14-5-22-13l-172-183c-6-6-16-7-22-1-7 6-7 17-1 23l172 183c14 14 28 21 42 23 11 0 27-2 44-19 24-24 21-61-8-90l-228-243c-19-19-41-29-63-31-1 0-3 0-5 0z"/>
<glyph glyph-name="simple-line-icons-147" unicode="&#57397;" d="M502 512c-3 0-7-1-11-3l-477-202c-18-8-19-22-3-31l135-84c16-10 37-32 47-47l81-133c4-7 10-11 15-11 6 0 12 4 16 13l204 477c5 13 2 21-7 21z m-339-292l-110 68 367 156-236-240c-7 6-14 12-21 16z m123-166l-65 107c-4 6-9 13-14 20l237 241z"/>
<glyph glyph-name="simple-line-icons-148" unicode="&#57398;" d="M256 512c-141 0-256-115-256-256 0-141 115-256 256-256 141 0 256 115 256 256 0 141-115 256-256 256z m0-481c-124 0-224 101-224 225 0 124 100 224 224 224 124 0 224-100 224-224 0-124-100-225-224-225z m112 241l-96 0 0 96c0 9-7 16-16 16-9 0-16-7-16-16l0-96-96 0c-9 0-16-7-16-16 0-9 7-16 16-16l96 0 0-96c0-9 7-16 16-16 9 0 16 7 16 16l0 96 96 0c9 0 16 7 16 16 0 9-7 16-16 16z"/>
<glyph glyph-name="simple-line-icons-149" unicode="&#57399;" d="M258 512c-105 0-194-89-194-195 0-111 103-224 172-304 1 0 12-13 26-13l1 0c14 0 25 13 25 13 65 75 160 198 160 304 0 106-69 195-190 195z m6-478c0 0-1-1-2-1-1 0-1 1-2 1l-8 10c-66 75-156 179-156 273 0 88 74 163 162 163 109 0 158-82 158-163 0-72-51-167-152-283z m-7 381c-53 0-96-43-96-96 0-53 43-96 96-96 53 0 96 43 96 96 0 53-43 96-96 96z m0-160c-36 0-65 30-65 65 0 35 29 64 64 64 35 0 64-29 64-64 0-35-28-65-63-65z"/>
<glyph glyph-name="simple-line-icons-150" unicode="&#57400;" d="M351 430c-8 4-18 0-21-8-4-8-1-17 7-21 81-38 125-126 107-214-21-104-123-172-228-150-50 10-92 39-120 82-29 44-39 95-28 146 12 60 51 109 106 136 8 4 12 13 8 21-4 8-13 11-21 8-65-31-110-89-125-159-12-59 0-119 33-169 33-50 82-85 141-97 15-3 30-4 45-4 105 0 199 73 221 180 21 102-31 205-125 249z m-95-126c9 0 16 7 16 16l0 176c0 9-7 16-16 16-9 0-16-7-16-16l0-176c0-9 7-16 16-16z"/>
<glyph glyph-name="simple-line-icons-151" unicode="&#57401;" d="M249 63c0 0 0 0 0 0l-46 72c-4 5-11 7-16 4l-4-2c-6-3-6-11-3-17l30-45c-3 0-5 1-8 1-51 14-95 49-119 96-24 45-28 96-13 144 16 48 50 87 95 110 8 4 11 14 7 21-4 8-14 11-21 7-52-27-92-73-110-129-18-56-13-115 14-167 29-55 79-96 140-112 0 0 1 0 2 0l-41-21c-6-3-7-10-4-15l1-4c4-5 9-7 15-4l74 38c0 0 1 0 1 0l5 3c2 1 4 4 5 6 1 3 0 6-1 9z m208 289c-29 55-78 95-138 111-4 1-9 2-13 3l40 20c5 3 9 10 5 15l-1 5c-3 5-10 7-16 4l-74-38c0 0-1 0-1 0l-5-3c-2-2-4-4-5-7-1-3 0-6 1-8l3-5c0 0 0 0 0-1l46-71c4-6 11-8 16-5l4 3c5 3 6 11 2 16l-29 46c6-1 13-2 19-4 52-13 94-48 118-96 24-44 28-96 13-144-16-48-49-87-93-110-8-4-11-13-7-21 3-5 8-8 14-8 2 0 5 0 7 1 52 27 90 73 108 129 18 56 13 115-14 168z"/>
<glyph glyph-name="simple-line-icons-152" unicode="&#57402;" d="M256 512c-128 0-232-104-232-232 0-120 92-221 211-231l-45-23c-6-3-10-10-6-16l1-4c4-6 11-8 17-5l76 40c1 0 1 0 1 0l5 3c3 1 5 4 5 7 1 2 1 6-1 8l-3 5c0 0 0 1 0 1l-47 74c-4 5-11 7-17 4l-4-3c-5-3-6-11-2-16l28-44c0 0-1 1-1 1-104 6-186 94-186 199 0 110 89 200 200 200 110 0 200-90 200-200 0-63-29-122-80-160-7-5-8-15-3-22 5-7 15-9 22-4 59 45 93 112 93 186 0 128-104 232-232 232z"/>
<glyph glyph-name="simple-line-icons-153" unicode="&#57403;" d="M480 304l-41 10c-3 10-7 20-12 29l22 37c8 13 13 33 0 45l-22 23c-13 12-34 10-47 1l-36-23c-9 5-19 9-29 13l-9 41c-3 15-16 32-34 32l-32 0c-18 0-29-17-32-32l-10-41c-11-4-22-8-31-13l-37 23c-13 9-34 11-47-1l-22-23c-13-12-9-32 0-45l23-39c-4-9-8-18-11-27l-41-10c-15-2-32-16-32-33l0-32c0-18 17-29 32-32l42-11c2-8 6-17 10-25l-23-39c-9-13-13-33 0-45l22-23c13-13 34-10 47-1l37 23c10-5 20-10 31-13l10-41c4-15 15-32 32-32l32 0c18 0 31 17 34 32l9 41c10 4 20 8 29 13l36-23c13-9 34-12 47 1l22 23c13 12 8 32 0 45l-22 37c4 9 8 18 11 27l42 11c15 3 32 14 32 32l0 32c0 17-16 31-32 33z m0-63c-1-1-4-2-7-3l-59-15-6-17c-2-7-6-15-10-23l-8-15 32-53c2-3 3-6 3-7l-21-21c-2 0-4 1-6 2l-52 33-17-8c-7-4-16-8-24-10l-17-6-13-59c-1-4-3-6-4-7l-29 0c0 1-2 4-3 7l-14 59-17 5c-9 3-18 7-26 11l-17 9-53-33c-2-2-4-3-6-3l-21 21c0 1 1 4 3 7l33 54-8 16c-4 7-7 14-9 21l-5 17-59 15c-4 1-7 2-8 3l0 30c0 0 0 0 0 0 1 0 3 2 5 2l61 13 5 18c3 7 6 15 10 23l8 16-33 54c-2 3-3 6-3 7l21 21c2 0 4-1 5-2l54-34 17 9c8 4 17 8 25 10l17 6 15 58c1 4 2 7 3 8l30 0c0 0 2-3 2-5l14-61 17-6c8-2 17-6 24-10l17-8 51 32c3 2 5 3 7 3l21-21c0-1-1-4-3-7l-32-53 8-16c5-8 8-16 11-24l5-18 59-13c4 0 7-3 7-4z m-224 111c-53 0-96-43-96-96 0-53 43-96 96-96 53 0 97 43 97 96 0 53-44 96-97 96z m0-160c-35 0-64 29-64 64 0 35 29 64 64 64 35 0 64-29 64-64 0-35-29-64-64-64z"/>
<glyph glyph-name="simple-line-icons-154" unicode="&#57404;" d="M256 473l58-121 11-21 23-4 133-20-97-96-16-16 4-23 22-135-117 63-21 11-21-11-117-63 22 135 4 23-16 16-97 96 133 20 23 4 11 21 58 121m0 31c-14 0-27-8-33-21l-58-120-134-20c-13-2-25-11-29-24-5-13-1-27 8-36l98-98-23-135c-2-14 4-28 16-36 6-4 13-6 21-6 6 0 12 1 18 4l116 63 116-63c6-3 12-4 18-4 8 0 15 2 21 6 12 8 18 22 16 36l-23 135 98 98c9 9 13 23 8 36-4 13-16 22-29 24l-134 20-58 120c-6 13-19 21-33 21z"/>
<glyph glyph-name="simple-line-icons-155" unicode="&#57405;" d="M312 512c-111 0-200-89-200-200 0-49 18-94 47-129l-63-64-68 68c-6 6-16 6-23 0-6-6-6-16 0-22l68-69-68-68c-6-7-6-17 0-23 6-6 16-6 22 0l69 68 68-68c6-7 16-7 22 0 7 6 7 16 0 22l-68 69 64 64c35-30 80-48 130-48 110 0 200 90 200 200 0 111-90 200-200 200z m0-368c-93 0-168 75-168 168 0 93 75 168 168 168 93 0 168-75 168-168 0-93-75-168-168-168z"/>
<glyph glyph-name="simple-line-icons-156" unicode="&#57406;" d="M512 501c0 3-1 6-3 8-2 2-5 3-8 3l-6 0c0 0 0 0-1 0l-146 0c-7 0-12-5-12-11l0-9c1-7 7-12 13-12l108 0-128-127c-35 29-80 47-129 47-110 0-200-90-200-200 0-111 90-200 200-200 111 0 200 89 200 200 0 50-18 95-48 130l128 128-1-110c0-6 5-12 12-11l8 0c7 0 12 4 12 10l0 148c0 0 0 0 0 0z m-143-301c0-93-76-169-169-169-93 0-168 76-168 169 0 92 75 168 168 168 93 0 169-76 169-168z"/>
<glyph glyph-name="simple-line-icons-157" unicode="&#57407;" d="M496 272l-49 0c-7 93-82 168-175 175l0 49c0 9-7 16-16 16-9 0-16-7-16-16l0-49c-93-7-168-82-175-175l-49 0c-9 0-16-7-16-16 0-9 7-16 16-16l49 0c7-93 82-168 175-175l0-49c0-9 7-16 16-16 9 0 16 7 16 16l0 49c93 7 168 82 175 175l49 0c9 0 16 7 16 16 0 9-7 16-16 16z m-256 143l0-143-143 0c7 76 67 136 143 143z m-143-175l143 0 0-143c-76 7-136 67-143 143z m175-143l0 143 143 0c-7-76-67-136-143-143z m0 175l0 143c76-7 136-67 143-143z"/>
<glyph glyph-name="simple-line-icons-158" unicode="&#57408;" d="M327 479c-5 3-11 3-16-1l-161-126-53 0c-27 0-49-19-49-43l0-106c0-23 23-43 50-43l53 0 160-126c3-2 6-3 9-3 2 0 5 1 7 2 6 3 9 8 9 14l0 418c0 6-3 11-9 14z m-23-402l-139 112c-3 2-6 3-9 3l-58 0c-10 0-18 6-18 11l0 106c0 5 7 11 17 11l58 0c3 0 7 1 9 3l140 112z m91 261c-9 2-17-4-19-13-1-9 5-17 14-18 25-5 42-27 42-54 0-26-18-48-43-53-9-2-14-10-12-19 1-8 8-13 15-13 1 0 2 0 3 1 40 7 69 43 69 84 0 43-29 78-69 85z"/>
<glyph glyph-name="simple-line-icons-159" unicode="&#57409;" d="M287 479c-5 3-11 3-16-1l-161-126-53 0c-27 0-50-19-50-43l1-106c0-23 23-43 50-43l53 0 160-126c2-2 6-3 9-3 2 0 5 1 7 2 5 3 9 8 9 14l0 418c0 6-4 11-9 14z m-23-402l-139 112c-3 2-6 3-9 3l-58 0c-10 0-18 6-18 11l0 106c0 5 7 11 17 11l58 0c3 0 6 1 9 3l140 112z m160 176c0 43-29 78-69 85-9 2-17-4-19-13-1-9 5-17 13-18 26-5 43-27 43-54 0-26-18-48-43-53-9-2-14-10-13-19 2-8 9-13 16-13 1 0 2 0 3 1 40 7 69 43 69 84z m-21 147c-8 3-18-1-21-9-3-9 2-18 10-21 48-18 81-65 81-117 0-52-33-99-81-117-8-3-13-12-10-20 3-7 9-11 15-11 2 0 4 1 6 1 61 23 102 82 102 147 0 65-41 124-102 147z"/>
<glyph glyph-name="simple-line-icons-160" unicode="&#57410;" d="M288 479c-5 3-12 3-17-1l-160-126-54 0c-27 0-49-19-49-43l1-106c0-23 22-43 49-43l54 0 159-126c3-2 6-3 9-3 3 0 5 1 8 2 5 3 8 8 8 14l0 418c0 6-3 11-8 14z m-24-402l-139 112c-2 2-5 3-8 3l-59 0c-10 0-17 6-17 11l-1 106c0 5 7 11 17 11l59 0c3 0 6 1 9 3l139 112z m183 179l52 53c7 6 7 16 0 22-6 7-16 7-22 0l-52-52-53 52c-6 7-16 7-22 0-7-6-7-16 0-22l52-53-52-53c-6-6-6-16 0-22 6-7 17-7 23 0l52 52 51-52c6-7 17-7 23 0 6 6 6 16 0 22z"/>
<glyph glyph-name="simple-line-icons-161" unicode="&#57411;" d="M373 94l-101 56c38 30 48 88 48 120l0 68c0 44-60 94-119 94-60 0-121-50-121-94l0-68c0-30 13-89 50-120l-103-56c0 0-27-12-27-27l0-40c0-15 12-27 27-27l346 0c15 0 27 12 27 27l0 40c0 16-27 27-27 27z m-5-62l-336 0 0 28c2 2 6 4 8 5 1 0 2 1 2 1l104 56c9 5 15 15 16 26 1 10-3 21-12 27-26 22-38 70-38 95l0 68c0 23 43 62 89 62 46 0 87-39 87-62l0-68c0-25-8-73-36-95-8-6-13-17-12-28 1-10 8-20 17-25l101-56c1 0 2-1 3-1 2-1 5-3 7-4z m117 142l-102 56c37 29 49 87 49 120l0 67c0 45-61 95-121 95-39 0-78-21-101-48 13-1 27-1 40-5 17 13 38 21 61 21 46 0 89-39 89-63l0-67c0-25-9-73-37-95-8-7-13-17-12-28 1-11 7-20 16-25l103-56c1-1 2-1 3-1 2-1 5-3 7-5l0-28-65 0c10-7 13-18 17-32l53 0c15 0 27 12 27 27l0 40c0 16-27 27-27 27z"/>
<glyph glyph-name="themify" unicode="&#57412;" d="M107 482l0-466 141 99 144-98 0 465z m254-408l-113 77-111-77 0 378 224 0z"/>
<glyph glyph-name="themify-1" unicode="&#57413;" d="M277 256l200-200-21-21-200 200-200-200-21 21 200 200-200 200 21 21 200-200 200 200 21-21z"/>
<glyph glyph-name="themify-2" unicode="&#57414;" d="M493 154l-22-22-215 216-215-216-22 22 237 236 237-236z"/>
<glyph glyph-name="themify-3" unicode="&#57415;" d="M398 257l-237-237-21 22 215 215-215 215 21 21z"/>
<glyph glyph-name="themify-4" unicode="&#57416;" d="M157 257l215-215-21-22-237 237 237 236 21-21z"/>
<glyph glyph-name="themify-5" unicode="&#57417;" d="M493 359l-237-236-237 236 22 21 215-215 215 215z"/>
<glyph glyph-name="themify-6" unicode="&#57418;" d="M0 301l211 0 0 211-211 0z m30 181l151 0 0-151-151 0z m271 30l0-211 211 0 0 211z m181-181l-151 0 0 151 151 0z m-482-331l211 0 0 211-211 0z m30 181l151 0 0-151-151 0z m271-181l211 0 0 211-211 0z m30 181l151 0 0-151-151 0z"/>
<glyph glyph-name="themify-7" unicode="&#57419;" d="M250 319c13 0 23 4 30 14 6 7 8 19 8 34l0 50c0 15-2 26-8 33-7 10-17 15-30 15-13 0-23-5-30-15-5-7-8-18-8-33l0-50c0-15 3-26 8-34 7-10 17-14 30-14z m-12 103c0 13 4 20 12 20 9 0 12-7 12-20l0-60c0-13-3-20-12-20-8 0-12 7-12 20z m74-93c-2 4-3 11-3 22l0 112 26 0 0-105c0-6 0-9 1-10 0-4 2-6 6-6 5 0 10 4 16 12l0 109 26 0 0-142-26 0 0 15c-10-12-20-17-29-17-9 0-15 3-17 10z m99-173l0-13-26 0 0 13c0 13 4 20 13 20 8 0 13-7 13-20z m-280 303c-6 17-12 35-18 53l30 0 20-75 20 75 29 0-35-114 0-77-28 0 0 77c-3 14-9 34-18 61z m329-212c-5 23-23 40-45 42-53 6-106 6-159 6-53 0-106 0-158-6-23-2-41-19-46-42-7-32-8-66-8-100 0-32 0-68 8-100 5-22 23-39 45-41 53-6 106-6 159-6 53 0 106 0 159 6 22 2 40 19 45 41 7 32 8 68 8 100 0 34 0 68-8 100z m-295-28l-30 0 0-163-29 0 0 163-30 0 0 26 89 0 0-26z m77-163l-25 0 0 15c-10-11-20-17-29-17-9 0-15 3-17 11-1 4-2 10-2 20l0 112 25 0 0-104c0-6 0-9 1-10 0-4 2-6 6-6 5 0 10 4 16 12l0 108 25 0z m97 42c0-13 0-22-2-28-3-11-10-16-20-16-10 0-18 5-27 16l0-14-25 0 0 189 25 0 0-62c8 11 17 16 27 16 10 0 17-6 20-16 2-6 2-15 2-28z m97 24l-51 0 0-25c0-13 4-20 13-20 6 0 10 4 11 10 1 2 1 8 1 18l26 0 0-4c0-8 0-14-1-16 0-6-2-11-6-16-6-10-17-15-30-15-14 0-24 5-31 15-6 6-9 18-9 33l0 49c0 15 3 26 8 33 8 10 18 15 31 15 13 0 23-5 30-15 6-7 8-18 8-33l0-29z m-122 35l0-61c0-13-4-19-11-19-4 0-9 2-13 6l0 86c4 5 9 7 13 7 7 0 11-7 11-19z"/>
<glyph glyph-name="themify-8" unicode="&#57420;" d="M21 337l104 0 0-311-104 0z m52 149c-35 0-58-23-58-53 0-30 22-54 57-54l1 0c36 0 58 24 58 54 0 30-22 53-58 53z m305-142c-55 0-80-30-93-52l0 45-103 0c0 0 1-30 0-311l103 0 0 173c0 10 1 19 3 26 8 18 25 37 53 37 38 0 53-28 53-70l0-166 103 0 0 178c0 95-51 140-119 140z"/>
<glyph glyph-name="themify-9" unicode="&#57421;" d="M453 325c0-116-64-201-158-201-32 0-62 17-72 36-17-67-20-80-20-80-6-22-19-45-30-62-31-23-34 12-34 12-1 20-1 45 5 67 0 0 5 24 37 159-9 19-9 47-9 47 0 43 25 76 56 76 27 0 40-21 40-45 0-26-17-66-26-103-7-31 16-57 46-57 56 0 93 72 93 156 0 64-43 112-122 112-89 0-144-66-144-140 0-26 8-43 20-58 5-6 6-8 4-16-2-5-5-18-6-23-2-8-8-10-15-8-40 17-60 62-60 112 0 83 70 183 209 183 112 0 186-81 186-167z"/>
<glyph glyph-name="themify-11" unicode="&#57423;" d="M512 433l0-39-79 0 0-79-39 0 0 79-79 0 0 39 79 0 0 79 39 0 0-79z m-199-306c0-35-17-64-43-87-36-30-84-40-129-40-58 0-141 25-141 96 0 14 5 29 11 42 28 55 113 69 168 71-10 13-19 28-19 45 0 11 3 17 6 27-7-1-14-2-21-2-60 0-111 44-111 106 0 59 45 109 101 121 19 4 38 6 57 6l135 0-42-24-41 0c30-19 46-57 46-91 0-82-69-88-69-128 0-40 92-56 92-142z m-80 239c0 47-26 124-83 124-40 0-59-36-59-72 0-47 30-120 85-120 42 0 57 30 57 68z m37-265c0 43-41 67-72 89-5 0-10 0-16 0-50 0-125-16-125-80 0-59 66-82 116-82 45 0 97 19 97 73z"/>
<glyph glyph-name="themify-12" unicode="&#57424;" d="M486 443c-18 22-54 23-80 19-20-4-90-34-114-108 42 3 64-3 60-49-2-19-11-40-22-61-13-23-36-69-67-36-28 30-26 87-32 125-4 21-8 48-15 70-6 18-20 41-36 46-19 5-41-3-55-11-41-24-69-59-110-88l0-3c14-7 9-18 20-20 25-3 49 24 66-4 10-17 13-36 19-55 9-24 16-51 23-79 12-48 26-120 68-137 21-9 53 3 69 12 43 26 78 63 106 101 67 90 103 192 109 221 4 20 3 41-9 57z"/>
<glyph glyph-name="themify-13" unicode="&#57425;" d="M459 360c1-4 1-9 1-13 0-139-106-299-299-299-59 0-115 17-161 47 8-1 17-1 25-1 49 0 95 16 131 45-47 1-85 31-98 73 6-1 13-2 19-2 10 0 19 1 28 3-48 10-84 52-84 103 0 1 0 1 0 2 14-8 30-13 47-14-28 19-47 51-47 88 0 19 6 37 15 53 51-64 129-106 216-110-2 8-3 16-3 24 0 58 47 105 105 105 31 0 58-13 77-33 24 4 47 13 67 25-8-24-25-45-46-58 21 3 41 8 60 17-14-21-32-40-53-55z"/>
<glyph glyph-name="themify-14" unicode="&#57426;" d="M274 497l0-122 114 0 0-75-114 0 0-124c0-28 1-46 5-54 2-8 8-14 16-19 11-6 23-10 37-10 24 0 48 8 72 24l0-76c-20-9-39-16-55-20-17-4-35-6-55-6-22 0-41 3-58 9-17 5-31 13-43 23-12 10-21 21-25 33-5 12-7 29-7 50l0 170-53 0 0 68c18 6 35 15 48 26 14 12 24 25 33 41 8 17 13 37 16 62z"/>
<glyph glyph-name="themify-15" unicode="&#57427;" d="M394 177c0-22-12-59-40-59-27 0-39 37-39 59 0 23 12 59 39 59 28 0 40-36 40-59z m-236 59c-28 0-40-36-40-59 0-22 12-59 40-59 27 0 39 37 39 59 0 23-12 59-39 59z m354-5c0-34-3-70-19-101-40-83-152-91-232-91-81 0-200 7-242 91-16 31-19 67-19 101 0 45 12 88 42 122-6 17-8 35-8 53 0 23 5 46 15 67 49 0 80-22 117-51 31 8 63 11 95 11 29 0 58-3 86-10 37 29 68 50 116 50 10-21 15-44 15-67 0-18-2-36-8-52 30-35 42-78 42-123z m-69-54c0 47-29 89-79 89-20 0-39-4-60-7-16-2-32-3-48-3-16 0-32 1-48 3-20 3-40 7-60 7-50 0-79-42-79-89 0-94 86-108 161-108l52 0c75 0 161 14 161 108z"/>
<glyph glyph-name="themify-16" unicode="&#57428;" d="M220 256c0-61-50-110-110-110-61 0-110 49-110 110 0 61 49 110 110 110 60 0 110-49 110-110z m292 0c0-61-49-110-110-110-60 0-110 49-110 110 0 61 50 110 110 110 61 0 110-49 110-110z m-30 0c0 44-36 80-80 80-44 0-80-36-80-80 0-44 36-80 80-80 44 0 80 36 80 80z"/>
<glyph glyph-name="themify-17" unicode="&#57429;" d="M375 344l-9-88-71 0 0-256-105 0 0 256-53 0 0 88 53 0 0 53c0 72 29 115 114 115l71 0 0-88-44 0c-33 0-36-13-36-36l0-44z"/>
<glyph glyph-name="themify-19" unicode="&#57431;" d="M27 207l-5-27c0-1 0-1-1-1-2 0-2 0-2 1l-4 27 4 27c0 1 0 1 1 1 2 0 2 0 2-1z m19 0l-6-43c0-1-1-1-2-1-1 0-2 0-2 2l-4 42c4 43 4 43 4 43 0 1 1 2 2 2 1 0 2-1 2-2z m19 0l-5-50c0-1-1-2-3-2-1 0-2 1-2 2l-5 50 5 51c0 2 1 3 2 3 2 0 3-1 3-3z m19 0l-5-51c0-2-1-3-3-3-1 0-2 1-2 3l-5 51 5 53c0 1 1 2 2 2 2 0 3-1 3-2z m19 0l-4-52c0-1-2-3-3-3-2 0-4 2-4 3l-4 52 4 49c0 1 2 3 4 3 1 0 3-2 3-3z m20 0l-4-52c0-2-2-3-4-3-2 0-4 1-4 3l-4 52c4 79 4 79 4 79 0 2 2 4 4 4 2 0 4-2 4-4z m19-1l-4-51c0-2-2-4-4-4-2 0-4 2-4 4l-3 51c3 98 3 98 3 98 0 3 2 4 4 4 2 0 4-1 4-4z m21 1l-4-51c0-2-2-4-5-4-2 0-4 2-4 4l-4 51 4 106c0 2 2 4 4 4 3 0 5-2 5-4z m19 0l-3 109c0 3-2 5-5 5-2 0-5-2-5-5l-3-109 3-51c0-2 3-4 5-4 3 0 5 2 5 4z m20 0l-3-50c0-3-2-5-5-5-3 0-5 2-5 5l-3 50 3 107c0 2 2 5 5 5 3 0 5-3 5-5z m21 0l-3-50c0-3-2-5-6-5-3 0-5 2-5 5l-3 50 3 103c0 3 2 5 5 5 4 0 6-2 6-5z m20 0l-2 122c0 2-1 4-3 5-1 1-2 1-3 1-2 0-3 0-4-1-1-1-2-3-2-5l-1-1-2-121c0 0 0 0 3-49 0 0 0 0 0-1 0-1 0-2 1-3 1-2 3-3 5-3 1 0 3 1 4 2 1 1 2 3 2 5l0 5 2 44z m18-49c0-3-2-6-6-6-4 0-6 3-7 6l-1 24-1 25 2 133 0 0c0 2 1 4 3 5 1 1 2 2 4 2 1 0 2-1 3-1 2-1 3-3 3-6l3-133-3-49z m177-6c-164 0-165 0-165 0-3 0-6 3-6 7l0 188c0 3 1 5 6 6 11 5 24 8 38 8 54 0 99-42 104-96 7 3 15 5 23 5 32 0 59-27 59-59 0-33-27-59-59-59z"/>
<glyph glyph-name="significon-archive" unicode="&#57432;" d="M448 32l-384 0c-35 0-64 29-64 64l0 48c0 9 7 16 16 16 9 0 16-7 16-16l0-48c0-18 14-32 32-32l384 0c18 0 32 14 32 32l0 128c0 18-14 32-32 32l-84 0c-10 0-19-6-24-14 0 0 1 1 1 2-16-31-48-52-85-52-37 0-69 21-85 52 0-1 1-2 1-2-5 8-14 14-25 14l-91 0c-22 0-40 18-40 40 0 4 1 7 2 11 1 2 0 3-1 3l25 118c13 39 39 52 61 52l304 0c23 0 50-13 62-52l20-91 0 0c1-8-4-16-12-18-8-2-16 3-19 11 0 0 0 0 0 0l0 0-22 104c-3 8-11 14-20 14l-320 0c-9 0-18-6-20-14l-27-127c-3-10 3-19 14-19l84 0c23 0 43-13 53-32 0 0 0 0 0 1 11-20 32-33 56-33 24 0 45 13 56 33 0-1 0-1 0-1 10 19 30 32 52 32l84 0c35 0 64-29 64-64l0-128c0-35-29-64-64-64z m-416 176c0-9-7-16-16-16-9 0-16 7-16 16 0 9 7 16 16 16 9 0 16-7 16-16z"/>
<glyph glyph-name="significon-arrow-down" unicode="&#57433;" d="M352 368c0 9 7 16 16 16 9 0 16-7 16-16 0-9-7-16-16-16-9 0-16 7-16 16z m141-157l-192-193c-12-12-29-18-45-18-16 0-33 6-45 18l-192 193c-14 13-20 31-19 48l0-3c0 35 29 64 64 64l32 0c18 0 32 14 32 32l0 96c0 35 29 64 64 64l128 0c35 0 64-29 64-64l0-16c0-9-7-16-16-16-9 0-16 7-16 16l0 16c0 18-14 32-32 32l-128 0c-18 0-32-14-32-32l0-96c0-35-29-64-64-64l-32 0c-18 0-32-14-32-32 0 0 0 0 0 0 0-8 3-16 9-23l192-192c13-12 33-12 46 0l192 192c6 7 9 15 9 23 0 0 0 0 0 0 0 18-14 32-32 32l-16 0c-9 0-16 7-16 16 0 9 7 16 16 16l16 0c35 0 64-29 64-64l0 3c1-17-5-35-19-48z"/>
<glyph glyph-name="significon-arrow-left" unicode="&#57434;" d="M496 256c-9 0-16 7-16 16l0 48c0 18-14 32-32 32l-96 0c-35 0-64 29-64 64l0 32c0 18-14 32-32 32 0 0 0 0 0 0-8 0-16-3-23-9l-192-192c-12-13-12-33 0-46l192-192c7-6 15-9 23-9 0 0 0 0 0 0 18 0 32 14 32 32l0 32c0 35 29 64 64 64l80 0c9 0 16-7 16-16 0-9-7-16-16-16l-80 0c-18 0-32-14-32-32l0-32c0-35-29-64-64-64l3 0c-17-1-35 5-48 19l-193 192c-12 12-18 29-18 45 0 16 6 33 18 45l193 192c13 14 31 20 48 19l-3 0c35 0 64-29 64-64l0-32c0-18 14-32 32-32l96 0c35 0 64-29 64-64l0-48c0-9-7-16-16-16z m0-32c9 0 16-7 16-16 0-9-7-16-16-16-9 0-16 7-16 16 0 9 7 16 16 16z"/>
<glyph glyph-name="significon-arrow-right" unicode="&#57435;" d="M494 211l-193-192c-13-14-31-20-48-19l3 0c-35 0-64 29-64 64l0 16c0 9 7 16 16 16 9 0 16-7 16-16l0-16c0-18 14-32 32-32 0 0 0 0 0 0 8 0 16 3 23 9l192 192c12 13 12 33 0 46l-192 192c-7 6-15 9-23 9 0 0 0 0 0 0-18 0-32-14-32-32l0-32c0-35-29-64-64-64l-96 0c-18 0-32-14-32-32l0-128c0-18 14-32 32-32l16 0c9 0 16-7 16-16 0-9-7-16-16-16l-16 0c-35 0-64 29-64 64l0 128c0 35 29 64 64 64l96 0c18 0 32 14 32 32l0 32c0 35 29 64 64 64l-3 0c17 1 35-5 48-19l193-192c12-12 18-29 18-45 0-16-6-33-18-45z m-318-51c9 0 16-7 16-16 0-9-7-16-16-16-9 0-16 7-16 16 0 9 7 16 16 16z"/>
<glyph glyph-name="significon-arrow-up" unicode="&#57436;" d="M512 253l0 3c0-35-29-64-64-64l-32 0c-18 0-32-14-32-32l0-16c0-9-7-16-16-16-9 0-16 7-16 16l0 16c0 35 29 64 64 64l32 0c18 0 32 14 32 32 0 0 0 0 0 0 0 8-3 16-9 23l-192 192c-13 12-33 12-46 0l-192-192c-6-7-9-15-9-23 0 0 0 0 0 0 0-18 14-32 32-32l32 0c35 0 64-29 64-64l0-96c0-18 14-32 32-32l112 0c9 0 16-7 16-16 0-9-7-16-16-16l-112 0c-35 0-64 29-64 64l0 96c0 18-14 32-32 32l-32 0c-35 0-64 29-64 64l0-3c-1 17 5 35 19 48l192 193c12 12 29 18 45 18 16 0 33-6 45-18l192-193c14-13 20-31 19-48z m-144-157c9 0 16-7 16-16 0-9-7-16-16-16-9 0-16 7-16 16 0 9 7 16 16 16z"/>
<glyph glyph-name="significon-attachment" unicode="&#57437;" d="M240 0c-80 0-144 64-144 144 0 4 0 8 1 12-1 1-1 3-1 4l0 240c0 62 50 112 112 112 62 0 112-50 112-112l0-211c0-4 0-5 0-9 0-43-37-76-80-76-44 0-80 36-80 80l0 184c0 9 7 16 16 16 9 0 16-7 16-16l0-186c0-25 21-46 48-46 27 0 48 21 48 46l0 218c0 44-36 80-80 80-44 0-80-36-80-80l0-256c0-62 50-112 112-112 62 0 112 50 112 112l0 160c0 9 7 16 16 16 9 0 16-7 16-16l0-160c0-80-64-144-144-144z m128 352c-9 0-16 7-16 16 0 9 7 16 16 16 9 0 16-7 16-16 0-9-7-16-16-16z"/>
<glyph glyph-name="significon-bell" unicode="&#57438;" d="M432 96l-384 0c-27 0-48 21-48 48 0 27 21 48 48 48 9 0 16 7 16 16l0 96c0 49 20 93 52 124l0 0c2 3 7 5 11 5 9 0 16-7 16-16 0-4-2-8-5-11l0 0c-26-26-42-62-42-102l0-104c0-22-18-40-40-40l-8 0c-9 0-16-7-16-16 0-9 7-16 16-16l384 0c9 0 16 7 16 16 0 9-7 16-16 16l-8 0c-22 0-40 18-40 40l0 104c0 73-54 133-125 143 0 0 0 0 0 0-20 2-35 19-35 40l0 9c0 9 7 16 16 16 9 0 16-7 16-16l0-6c0-6 4-11 10-12-1 0-2 0-2 0 86-11 152-85 152-174l0-96c0-9 7-16 16-16 27 0 48-21 48-48 0-27-21-48-48-48z m-256 336c-9 0-16 7-16 16 0 9 7 16 16 16 9 0 16-7 16-16 0-9-7-16-16-16z m32-368c9 0 16-7 16-16 0-9 7-16 16-16 9 0 16 7 16 16 0 9 7 16 16 16 9 0 16-7 16-16 0-27-21-48-48-48-27 0-48 21-48 48 0 9 7 16 16 16z"/>
</font>
</defs>
</svg>
